Tags
Language
Tags

Aleksi Perälä - Phantasia III (2021) [Official Digital Download 24/96]

Posted By: delpotro
Aleksi Perälä - Phantasia III (2021) [Official Digital Download 24/96]

Aleksi Perälä - Phantasia III (2021)
FLAC (tracks) 24-bit/96 kHz | Front Cover | Time - 69:49 minutes | 1,39 GB
Electronic, Ambient, IDM | Label: AP Musik, Official Digital Download

The Finnish producer continues his streak of luminous electronic releases with an ecstatic, body-moving, and curiously serene collection of techno bangers.

Tracklist:
1. FI3AC2152010 (03:37)
2. FI3AC2152020 (03:02)
3. FI3AC2152030 (04:28)
4. FI3AC2152040 (06:13)
5. FI3AC2152050 (05:14)
6. FI3AC2152060 (06:32)
7. FI3AC2152070 (08:02)
8. FI3AC2152080 (07:26)
9. FI3AC2152090 (04:52)
10. FI3AC2152100 (06:56)
11. FI3AC2152110 (08:19)
12. FI3AC2152120 (05:10)

foobar2000 1.4.1 / Dynamic Range Meter 1.1.1
log date: 2021-07-11 14:39:55

––––––––––––––––––––––––––––––––––––––––
Analyzed: Aleksi Perälä / Phantasia III
––––––––––––––––––––––––––––––––––––––––

DR Peak RMS Duration Track
––––––––––––––––––––––––––––––––––––––––
DR10 -0.56 dB -11.44 dB 3:37 01-FI3AC2152010
DR10 -0.50 dB -13.39 dB 3:02 02-FI3AC2152020
DR10 -0.50 dB -11.97 dB 4:28 03-FI3AC2152030
DR10 -0.56 dB -11.66 dB 6:13 04-FI3AC2152040
DR9 -0.56 dB -11.77 dB 5:14 05-FI3AC2152050
DR9 -0.53 dB -12.17 dB 6:32 06-FI3AC2152060
DR8 -0.56 dB -10.32 dB 8:02 07-FI3AC2152070
DR9 -0.53 dB -11.49 dB 7:26 08-FI3AC2152080
DR8 -0.54 dB -10.47 dB 4:52 09-FI3AC2152090
DR9 -0.53 dB -11.08 dB 6:56 10-FI3AC2152100
DR9 -0.53 dB -11.12 dB 8:19 11-FI3AC2152110
DR10 -0.53 dB -11.84 dB 5:10 12-FI3AC2152120
––––––––––––––––––––––––––––––––––––––––

Number of tracks: 12
Official DR value: DR9

Samplerate: 96000 Hz
Channels: 2
Bits per sample: 24
Bitrate: 2893 kbps
Codec: FLAC
================================================================================


Thanks to the Original customer!