Tags
Language
Tags

Alison Mosshart - Sound Wheel (2020) [Official Digital Download]

Posted By: delpotro
Alison Mosshart - Sound Wheel (2020) [Official Digital Download]

Alison Mosshart - Sound Wheel (2020)
FLAC (tracks) 24-bit/44,1 kHz | Front Cover | Time - 52:30 minutes | 471 MB
Spoken Word | Label: Third Man Records, Official Digital Download

Alison Mosshart (The Kills, The Dead Weather) releases Sound Wheel, her first solo spoken word album. Sound Wheel is an album about cars, rock n’ roll, and love. It’s an album about America, performance, and life on the road. It’s an album about fender bender portraiture, story tellin' tire tracks, and the never-ending search for the spirit under the hood.

Tracklist:
1. Intro: Talk Talk Talk (00:41)
2. Windows Up (00:48)
3. Pink Whip (00:34)
4. Last Pack of Holy Smokes (01:44)
5. Interlude / Psycho Hwy (00:13)
6. Salt Lake City Drag (00:29)
7. Interlude / In or Out (00:08)
8. La (00:50)
9. Cables Galore (00:35)
10. Interlude / The Storm (00:32)
11. The Distance (01:50)
12. Interlude / Oh Say (00:29)
13. Sonic States (02:03)
14. Interlude / Bad Man Blah Blah Blah (00:23)
15. Miami Mix (00:43)
16. Admit It (00:26)
17. Angelyne (00:29)
18. Oh Black Shark (00:54)
19. S Town (00:38)
20. Interlude / Chevy Eyes (00:17)
21. Hold On (00:46)
22. Interlude / See Ya There (00:35)
23. Louisiana (01:22)
24. Around and Around (00:59)
25. Eliminator (01:14)
26. Sexy Pontiac XXX (00:26)
27. Interlude / Horrible Singing Voices (00:16)
28. Let's Start a Band (00:33)
29. Demon Prince (00:20)
30. She's a Trip (02:16)
31. Road Kill (00:52)
32. Animals (01:05)
33. Sunday Style (01:00)
34. High Performance (02:32)
35. In Between Jobs (01:18)
36. Returning the Screw (02:00)
37. High Horses (01:08)
38. Summertime (01:41)
39. Interlude / Real Real Real (00:15)
40. Eastern Standards in the Wild West (00:40)
41. The Electric Sads (03:47)
42. Interlude / White Firebird (00:37)
43. A Dime (03:56)
44. Little Bottle (03:21)
45. Mindfield (03:16)
46. The Daughter of the American Used Car Dealer (00:18)
47. Vroom Chicka Vroom (00:51)

foobar2000 1.4.1 / Dynamic Range Meter 1.1.1
log date: 2020-08-07 18:13:59

––––––––––––––––––––––––––––––––––––––––
Analyzed: Alison Mosshart / Sound Wheel
––––––––––––––––––––––––––––––––––––––––

DR Peak RMS Duration Track
––––––––––––––––––––––––––––––––––––––––
DR13 -2.52 dB -19.12 dB 0:42 01-Intro - Talk Talk Talk
DR12 -3.16 dB -17.13 dB 0:48 02-Windows Up
DR15 -2.46 dB -21.49 dB 0:34 03-Pink Whip
DR17 -2.16 dB -21.42 dB 1:45 04-Last Pack of Holy Smokes
DR16 -0.47 dB -22.01 dB 0:14 05-Interlude / Psycho Hwy
DR16 -2.97 dB -21.89 dB 0:29 06-Salt Lake City Drag
DR13 -2.78 dB -16.62 dB 0:09 07-Interlude / In or Out
DR18 -2.13 dB -24.01 dB 0:51 08-La
DR19 -2.52 dB -25.11 dB 0:35 09-Cables Galore
DR11 -5.04 dB -19.04 dB 0:32 10-Interlude / The Storm
DR14 -3.21 dB -19.90 dB 1:50 11-The Distance
DR11 -5.48 dB -18.66 dB 0:29 12-Interlude / Oh Say
DR15 -3.08 dB -20.06 dB 2:03 13-Sonic States
DR7 -2.52 dB -13.88 dB 0:24 14-Interlude / Bad Man Blah Blah Blah
DR15 -4.31 dB -22.49 dB 0:43 15-Miami Mix
DR16 -2.42 dB -22.81 dB 0:27 16-Admit It
DR17 -4.62 dB -26.19 dB 0:30 17-Angelyne
DR16 -2.82 dB -21.20 dB 0:55 18-Oh Black Shark
DR19 -0.10 dB -22.02 dB 0:39 19-S Town
DR14 -1.07 dB -17.91 dB 0:18 20-Interlude / Chevy Eyes
DR15 -3.02 dB -21.62 dB 0:46 21-Hold On
DR18 -3.52 dB -24.01 dB 0:36 22-Interlude / See Ya There
DR16 -3.15 dB -21.81 dB 1:22 23-Louisiana
DR14 -2.95 dB -19.47 dB 1:00 24-Around and Around
DR16 -2.51 dB -24.90 dB 1:14 25-Eliminator
DR16 -2.78 dB -21.71 dB 0:27 26-Sexy Pontiac XXX
DR15 -2.90 dB -23.25 dB 0:16 27-Interlude / Horrible Singing Voices
DR16 -3.19 dB -21.99 dB 0:33 28-Let's Start a Band
DR11 -1.99 dB -16.49 dB 0:20 29-Demon Prince
DR12 -3.43 dB -17.02 dB 2:17 30-She's a Trip
DR15 -2.81 dB -20.38 dB 0:52 31-Road Kill
DR16 -3.87 dB -24.72 dB 1:05 32-Animals
DR19 -2.95 dB -23.62 dB 1:01 33-Sunday Style
DR12 -2.62 dB -17.35 dB 2:32 34-High Performance
DR12 -3.12 dB -17.02 dB 1:19 35-In Between Jobs
DR12 -2.36 dB -16.92 dB 2:00 36-Returning the Screw
DR16 -4.29 dB -21.80 dB 1:08 37-High Horses
DR14 -2.86 dB -20.01 dB 1:41 38-Summertime
DR9 -3.97 dB -14.50 dB 0:15 39-Interlude / Real Real Real
DR16 0.00 dB -18.84 dB 0:40 40-Eastern Standards in the Wild West
DR18 -3.16 dB -24.88 dB 3:47 41-The Electric Sads
DR15 -1.50 dB -18.88 dB 0:37 42-Interlude /White Firebird
DR18 -3.51 dB -25.57 dB 3:56 43-A Dime
DR18 -0.94 dB -25.77 dB 3:21 44-Little Bottle
DR23 -1.96 dB -26.87 dB 3:16 45-Mindfield
DR3 -5.38 dB -15.54 dB 0:18 46-The Daughter of the American Used Car Dealer
DR14 0.00 dB -15.43 dB 0:52 47-Vroom Chicka Vroom
––––––––––––––––––––––––––––––––––––––––

Number of tracks: 47
Official DR value: DR15

Samplerate: 44100 Hz
Channels: 2
Bits per sample: 24
Bitrate: 1439 kbps
Codec: FLAC
================================================================================


Thanks to the Original customer!