Joby Bell - Widor: American Classic Widor Vol. 5 (2020) [Official Digital Download 24/96]

Posted By: El Misha
Joby Bell - Widor: American Classic Widor Vol. 5 (2020) [Official Digital Download 24/96]

Joby Bell - Widor: American Classic Widor Vol. 5 (2020)
FLAC (tracks) 24-bit/96 kHz | Time - 01:12:07 | 1.26 GB
Studio Master, Official Digital Download | Artwork: Front cover

This is Volume 5 in Centaur's traversal of the complete organ works of Widor, performed by Joby Bell. The works in this series are performed on five magnificent Aeolian-Skinner and E.M. Skinner instruments; hence, the ""American Classic"" label. Since 2004, professor Joby Bell has served on the faculty of the Hayes School of Music, where he teaches organ and church music studies. His church music teaching emphasizes the practical knowledge needed for a solid undergraduate foundation toward successful work and further studies in sacred music. His organ teaching specializes in practice techniques, memorization, service playing, choral accompanying, and maintaining grace under pressure lessons always best taught by example.



Tracklist:

Widor, Charles-Marie Jean Albert (1844-1937) :
Organ Symphony No. 6 in G minor, Op. 42 No. 2 36:30
01. I. Allegro 10:03
02. II. Adagio 7:39
03. III. Intermezzo. Allegro 6:00
04. IV. Cantabile 6:15
05. V. Finale. Vivace 6:33

Organ Symphony No. 10 in D Major, Op. 73 "Romane" 35:40
06. I. Moderato 8:11
07. II. Choral. Adagio 10:05
08. III. Cantilène. Lento 6:57
09. IV. Finale. Allegro 10:27

foobar2000 1.6.2 / Dynamic Range Meter 1.1.1
log date: 2020-11-28 16:31:40

––––––––––––––––––––––––––––––––––––––––
Analyzed: Joby Bell / American Classic Widor, Vol. 5
––––––––––––––––––––––––––––––––––––––––

DR Peak RMS Duration Track
––––––––––––––––––––––––––––––––––––––––
DR12 -1.70 dB -17.40 dB 10:03 01-Organ Symphony No. 6 in G Minor, Op. 42 No. 2: I. Allegro
DR12 -6.28 dB -24.04 dB 7:40 02-Organ Symphony No. 6 in G Minor, Op. 42 No. 2: II. Adagio
DR14 -4.93 dB -24.13 dB 6:01 03-Organ Symphony No. 6 in G Minor, Op. 42 No. 2: III. Intermezzo. Allegro
DR10 -14.79 dB -30.17 dB 6:16 04-Organ Symphony No. 6 in G Minor, Op. 42 No. 2: IV. Cantabile
DR12 -3.46 dB -18.80 dB 6:34 05-Organ Symphony No. 6 in G Minor, Op. 42 No. 2: V. Finale. Vivace
DR11 -2.41 dB -18.62 dB 8:11 06-Organ Symphony No. 10 in D Major, Op. 73 "Romane": I. Moderato
DR12 -7.11 dB -25.03 dB 10:06 07-Organ Symphony No. 10 in D Major, Op. 73 "Romane": II. Choral. Adagio
DR10 -11.29 dB -26.66 dB 6:58 08-Organ Symphony No. 10 in D Major, Op. 73 "Romane": III. Cantilène. Lento
DR12 -0.52 dB -17.22 dB 10:25 09-Organ Symphony No. 10 in D Major, Op. 73 "Romane": IV. Finale. Allegro
––––––––––––––––––––––––––––––––––––––––

Number of tracks: 9
Official DR value: DR12

Samplerate: 96000 Hz
Channels: 2
Bits per sample: 24
Bitrate: 2572 kbps
Codec: FLAC
================================================================================


Thanks to the Original customer!