Tags
Language
Tags

Andrew Lloyd Webber - Jesus Christ Superstar (50th Anniversary Remastered Deluxe Edition) (1970/2021) [Of Digital Download]

Posted By: delpotro
Andrew Lloyd Webber - Jesus Christ Superstar (50th Anniversary Remastered Deluxe Edition) (1970/2021) [Of Digital Download]

Andrew Lloyd Webber - Jesus Christ Superstar (50th Anniversary Remastered Deluxe Edition) (1970/2021)
FLAC (tracks) 24-bit/44,1 kHz | Front Cover | Time - 119:05 minutes | 1,38 GB
Rock Opera, Art Rock | Label: Decca Records, Official Digital Download

Tim Rice and Andrew Lloyd Webber‘s 1970 concept album Jesus Christ Superstar is being reissued for its 50th anniversary.

The record was a effectively a stepping stone to the full musical theatre production since Tim Rice and Andrew Lloyd Webber (unknowns at the time), were initially unable to find a producer to back their idea. MCA Records were willing to put out the album which used a full orchestra and included the talents of Deep Purple’s Ian Gillan, Murray Head, and Yvonne Elliman.

Lloyd Webber remembers the challenges well: “A musical about Jesus Christ! Back in 1969 the mere thought had theatre producers falling about with laughter. But somehow Tim Rice and I persuaded MCA to record a single. It came at a time when fusion was all the rage. The Rolling Stones had recorded with the London Bach Choir. Deep Purple’s Jon Lord composed a symphony for rock band and orchestra. So I was like a kid in a sweet shop when I was able to combine a rock band, a symphony orchestra and a gospel choir in what was the first track to be recorded, simply titled ‘Superstar’.“

The enormous success of the album at the time (it topped the American charts) led to Broadway and West End stage productions in 1971 and 1972 respectively.

Tracklist:
Disc 1 (43:45)
1. "Jesus Christ Superstar" Orchestra, Andrew Lloyd Webber & Tim Rice – Overture (Remastered 2021) (03:58)
2. Murray Head, Alan Doggett, Andrew Lloyd Webber & Tim Rice – Heaven On Their Minds (Remastered 2021) (04:22)
3. Yvonne Elliman, Murray Head, Ian Gillan, "Jesus Christ Superstar" Apostles - Original Studio Cast, Andrew Lloyd Webber & Tim Rice – What's The Buzz / Strange Thing Mystifying (Remastered 2021) (04:13)
4. Yvonne Elliman, Ian Gillan, Murray Head, Andrew Lloyd Webber & Tim Rice – Everything's Alright (Remastered 2021) (05:14)
5. Brian Keith, Victor Brox, Andrew Lloyd Webber & Tim Rice – This Jesus Must Die (Remastered 2021) (03:34)
6. Victor Brox, Ian Gillan, Alan Doggett, Andrew Lloyd Webber & Tim Rice – Hosanna (Remastered 2021) (02:08)
7. Ian Gillan, John Gustafson, Andrew Lloyd Webber & Tim Rice – Simon Zealotes / Poor Jerusalem (Remastered 2021) (04:47)
8. Alan Doggett, Barry Dennen, Andrew Lloyd Webber & Tim Rice – Pilate's Dream (Remastered 2021) (01:28)
9. Ian Gillan, Alan Doggett, Andrew Lloyd Webber & Tim Rice – The Temple (Remastered 2021) (04:43)
10. Ian Gillan, Yvonne Elliman, Andrew Lloyd Webber & Tim Rice – Everything's Alright (Reprise / Remastered 2021) (00:29)
11. Yvonne Elliman, Andrew Lloyd Webber & Tim Rice – I Don't Know How To Love Him (Remastered 2021) (03:41)
12. Brian Keith, Victor Brox, Murray Head, "Jesus Christ Superstar" Apostles - Original Studio Cast, Andrew Lloyd Webber & Tim Rice – Damned For All Time / Blood Money (Remastered 2021) (05:08)

Disc 2 (43:10)
1. "Jesus Christ Superstar" Apostles - Original Studio Cast, Murray Head, Ian Gillan, Andrew Lloyd Webber & Tim Rice – The Last Supper (Remastered 2021) (07:07)
2. Ian Gillan, Andrew Lloyd Webber & Tim Rice – Gethsemane (I Only Want To Say) [Remastered 2021] (05:35)
3. Victor Brox, Paul Davis, Ian Gillan, Brian Keith, Murray Head, Andrew Lloyd Webber & Tim Rice – The Arrest (Remastered 2021) (03:18)
4. Yvonne Elliman, Annette Brox, Paul Davis, Andrew Lloyd Webber & Tim Rice – Peter's Denial (Remastered 2021) (01:28)
5. Ian Gillan, Barry Dennen, Andrew Lloyd Webber & Tim Rice – Pilate And Christ (Remastered 2021) (02:43)
6. Mike D'Abo, Andrew Lloyd Webber & Tim Rice – King Herod's Song (Try It And See) [Remastered 2021] (03:02)
7. Victor Brox, "Jesus Christ Superstar" Apostles - Original Studio Cast, Murray Head, Andrew Lloyd Webber & Tim Rice – Judas's Death (Remastered 2021) (04:15)
8. Victor Brox, Ian Gillan, Barry Dennen, Andrew Lloyd Webber & Tim Rice – Trial Before Pilate (Remastered 2021) (05:13)
9. Murray Head, Andrew Lloyd Webber & Tim Rice – Superstar (feat. The Trinidad Singers) [Remastered 2021] (04:16)
10. Ian Gillan, Alan Doggett, Andrew Lloyd Webber & Tim Rice – The Crucifixion (Remastered 2021) (04:06)
11. "Jesus Christ Superstar" Orchestra, Andrew Lloyd Webber & Tim Rice – John Nineteen Forty-One (Remastered 2021) (02:07)

Disc 3 (31:51)
1. Andrew Lloyd Webber & Tim Rice – Ascending Chords (00:22)
2. Brian Keith, Victor Brox, Murray Head, "Jesus Christ Superstar" Apostles - Original Studio Cast, Andrew Lloyd Webber & Tim Rice – Damned For All Time / Blood Money (Guide Vocal) (01:10)
3. Mike D'Abo, Andrew Lloyd Webber & Tim Rice – King Herod's Song (Try It And See) [Guide Vocal] (03:11)
4. Murray Head, Andrew Lloyd Webber & Tim Rice – I Don't Know How To Love Him (Tim Rice And Murray Head Vocals) (03:43)
5. Murray Head, Andrew Lloyd Webber & Tim Rice – I Don't Know How To Love Him (Murray Head Vocals) (03:43)
6. Brian Keith, Victor Brox, Andrew Lloyd Webber & Tim Rice – This Jesus Must Die (Scat Vocals 1) (01:08)
7. Andrew Lloyd Webber & Tim Rice – What A Party (01:52)
8. Brian Keith, Victor Brox, Andrew Lloyd Webber & Tim Rice – This Jesus Must Die (Scat Vocals 2) (01:07)
9. Andrew Lloyd Webber & Tim Rice – Heaven On Their Minds (Instrumental) (02:50)
10. Yvonne Elliman, Andrew Lloyd Webber & Tim Rice – I Don't Know How To Love Him (03:43)
11. Murray Head, Alan Doggett, Andrew Lloyd Webber & Tim Rice – (Too Much) Heaven On Their Minds (German Single) (04:37)
12. Murray Head, Andrew Lloyd Webber & Tim Rice – Strange Thing (Mystifying) (01:53)
13. The Andrew Lloyd Webber Orchestra & Tim Rice – John Nineteen Forty-One (Remastered 2021) (02:32)

foobar2000 1.4.1 / Dynamic Range Meter 1.1.1
log date: 2021-09-16 19:39:03

––––––––––––––––––––––––––––––––––––––––
Analyzed: "Jesus Christ Superstar" Orchestra / Jesus Christ Superstar (1)
Alan Doggett / Jesus Christ Superstar (2)
Brian Keith / Jesus Christ Superstar (3-4)
Ian Gillan / Jesus Christ Superstar (5-7)
Murray Head / Jesus Christ Superstar (8)
Victor Brox / Jesus Christ Superstar (9)
Yvonne Elliman / Jesus Christ Superstar (10-12)
––––––––––––––––––––––––––––––––––––––––

DR Peak RMS Duration Track
––––––––––––––––––––––––––––––––––––––––
DR6 -0.20 dB -9.50 dB 3:59 01-Overture
DR8 -0.24 dB -11.02 dB 1:29 08-Pilate's Dream
DR9 -0.21 dB -12.19 dB 3:34 05-This Jesus Must Die
DR9 -0.20 dB -11.96 dB 5:09 12-Damned For All Time / Blood Money
DR8 -0.21 dB -11.39 dB 4:48 07-Simon Zealotes / Poor Jerusalem
DR7 -0.20 dB -10.14 dB 4:44 09-The Temple
DR11 -1.71 dB -15.26 dB 0:29 10-Everything's Alright (Reprise)
DR7 -0.20 dB -10.59 dB 4:22 02-Heaven On Their Minds
DR8 -0.21 dB -9.43 dB 2:09 06-Hosanna
DR7 -0.21 dB -9.66 dB 4:14 03-What's The Buzz / Strange Thing Mystifying
DR7 -0.20 dB -9.93 dB 5:15 04-Everything's Alright
DR8 -0.20 dB -10.61 dB 3:41 11-I Don't Know How To Love Him
––––––––––––––––––––––––––––––––––––––––

Number of tracks: 12
Official DR value: DR8

Samplerate: 44100 Hz
Channels: 2
Bits per sample: 24
Bitrate: 1641 kbps
Codec: FLAC
================================================================================

foobar2000 1.4.1 / Dynamic Range Meter 1.1.1
log date: 2021-09-16 19:39:26

––––––––––––––––––––––––––––––––––––––––
Analyzed: "Jesus Christ Superstar" Apostles - Original Studio Cast / Jesus Christ Superstar (1)
"Jesus Christ Superstar" Orchestra / Jesus Christ Superstar (2)
Ian Gillan / Jesus Christ Superstar (3-5)
Mike D'abo / Jesus Christ Superstar (6)
Murray Head / Jesus Christ Superstar (7)
Victor Brox / Jesus Christ Superstar (8-10)
Yvonne Elliman / Jesus Christ Superstar (11)
––––––––––––––––––––––––––––––––––––––––

DR Peak RMS Duration Track
––––––––––––––––––––––––––––––––––––––––
DR8 -0.20 dB -11.87 dB 7:08 01-The Last Supper
DR10 -0.77 dB -16.57 dB 2:07 11-John Nineteen Forty-One
DR7 -0.20 dB -9.55 dB 5:36 02-Gethsemane (I Only Want To Say)
DR9 -0.20 dB -12.21 dB 2:44 05-Pilate And Christ
DR10 -0.23 dB -14.01 dB 4:06 10-The Crucifixion
DR9 -0.20 dB -11.09 dB 3:02 06-King Herod's Song (Try It And See)
DR6 -0.21 dB -8.28 dB 4:16 09-Superstar
DR9 -0.20 dB -12.17 dB 3:19 03-The Arrest
DR8 -0.20 dB -10.64 dB 4:15 07-Judas's Death
DR8 -0.20 dB -10.75 dB 5:13 08-Trial Before Pilate
DR9 -0.21 dB -10.94 dB 1:29 04-Peter's Denial
––––––––––––––––––––––––––––––––––––––––

Number of tracks: 11
Official DR value: DR8

Samplerate: 44100 Hz
Channels: 2
Bits per sample: 24
Bitrate: 1631 kbps
Codec: FLAC
================================================================================

foobar2000 1.4.1 / Dynamic Range Meter 1.1.1
log date: 2021-09-16 19:39:44

––––––––––––––––––––––––––––––––––––––––
Analyzed: Andrew Lloyd Webber / Jesus Christ Superstar (1-3)
Brian Keith / Jesus Christ Superstar (4-6)
Mike D'abo / Jesus Christ Superstar (7)
Murray Head / Jesus Christ Superstar (8-11)
The Andrew Lloyd Webber Orchestra / Jesus Christ Superstar (12)
Yvonne Elliman / Jesus Christ Superstar (13)
––––––––––––––––––––––––––––––––––––––––

DR Peak RMS Duration Track
––––––––––––––––––––––––––––––––––––––––
DR6 -1.17 dB -9.82 dB 0:23 01-Ascending Chords
DR7 -0.20 dB -9.91 dB 1:52 07-What A Party
DR9 -0.21 dB -11.12 dB 2:50 09-Heaven On Their Minds (Instrumental)
DR8 -0.21 dB -9.82 dB 1:11 02-Damned For All Time / Blood Money (Guide Vocal)
DR7 -0.21 dB -8.70 dB 1:08 06-This Jesus Must Die (Scat Vocals 1)
DR7 -0.20 dB -8.65 dB 1:07 08-This Jesus Must Die (Scat Vocals 2)
DR9 -0.20 dB -11.47 dB 3:12 03-King Herod's Song (Try It And See) (Guide Vocal)
DR7 -0.29 dB -8.51 dB 3:44 04-I Don't Know How To Love Him (Tim Rice And Murray Head Vocals)
DR7 -0.60 dB -8.47 dB 3:44 05-I Don't Know How To Love Him (Murray Head Vocals)
DR7 -0.21 dB -9.77 dB 4:37 11-(Too Much) Heaven On Their Minds (German Single)
DR6 -0.59 dB -8.90 dB 1:53 12-Strange Thing (Mystifying)
DR8 -0.40 dB -12.19 dB 2:33 13-John Nineteen Forty-One
DR9 -0.23 dB -11.51 dB 3:44 10-I Don't Know How To Love Him
––––––––––––––––––––––––––––––––––––––––

Number of tracks: 13
Official DR value: DR8

Samplerate: 44100 Hz
Channels: 2
Bits per sample: 24
Bitrate: 1572 kbps
Codec: FLAC
================================================================================


Thanks to the Original customer!