Tags
Language
Tags
December 2022
Su Mo Tu We Th Fr Sa
27 28 29 30 1 2 3
4 5 6 7 8 9 10
11 12 13 14 15 16 17
18 19 20 21 22 23 24
25 26 27 28 29 30 31

Antwerp Philharmonic Orchestra - The Seven Symphonies: A Classical Tribute to Beach Boys Music (2022) [Digital Download 24/48]

Posted By: delpotro
Antwerp Philharmonic Orchestra - The Seven Symphonies: A Classical Tribute to Beach Boys Music (2022) [Digital Download 24/48]

Antwerp Philharmonic Orchestra - The Seven Symphonies: A Classical Tribute to Beach Boys Music (2022)
FLAC (tracks) 24-bit/48 kHz | Front Cover | Time - 76:52 minutes | 773 MB
Classical Crossover | Label: WedgeView Music, Official Digital Download

Roeland Jacobs, Jan Vereecke, Rob van Weelde and PIAS Netherlands/Belgium cordially invite you to attend the world première of the album "THE SEVEN SYMPHONIES", a classical tribute to Beach Boys Music. This concerns newly arranged compositions that were recorded by the Antwerp Philharmonic Orchestra.

Tracklist:
1. The Seven Symphonies: I. Capella (13:19)
2. The Seven Symphonies: II. Room For Nature (09:44)
3. The Seven Symphonies: III. Beach Waltz (07:15)
4. The Seven Symphonies: IV. The Nearest Faraway Symphony (09:21)
5. The Seven Symphonies: V. Symphony Of The Unknown (08:14)
6. The Seven Symphonies: VI. Symphony Of The Little Bird (08:48)
7. The Seven Symphonies: VII. Pet Symphony (20:08)

foobar2000 1.4.1 / Dynamic Range Meter 1.1.1
log date: 2022-03-12 14:52:52

––––––––––––––––––––––––––––––––––––––––
Analyzed: Antwerp Philharmonic Orchestra / The Seven Symphonies: A Classical Tribute to Beach Boys Music
––––––––––––––––––––––––––––––––––––––––

DR Peak RMS Duration Track
––––––––––––––––––––––––––––––––––––––––
DR14 -0.80 dB -18.63 dB 13:20 01-I. Capella
DR11 -0.80 dB -16.72 dB 9:45 02-II. Room For Nature
DR11 -0.80 dB -16.91 dB 7:15 03-III. Beach Waltz
DR10 -0.80 dB -16.18 dB 9:21 04-IV. The Nearest Faraway Symphony
DR11 -0.80 dB -16.60 dB 8:15 05-V. Symphony Of The Unknown
DR13 -0.80 dB -18.62 dB 8:49 06-VI. Symphony Of The Little Bird
DR12 -0.80 dB -17.77 dB 20:09 07-VII. Pet Symphony
––––––––––––––––––––––––––––––––––––––––

Number of tracks: 7
Official DR value: DR12

Samplerate: 48000 Hz
Channels: 2
Bits per sample: 24
Bitrate: 1412 kbps
Codec: FLAC
================================================================================


Thanks to the Original customer!