Tags
Language
Tags
February 2024
Su Mo Tu We Th Fr Sa
28 29 30 31 1 2 3
4 5 6 7 8 9 10
11 12 13 14 15 16 17
18 19 20 21 22 23 24
25 26 27 28 29 1 2
Attention❗ To save your time, in order to download anything on this site, you must be registered 👉 HERE. If you do not have a registration yet, it is better to do it right away. ✌

( • )( • ) ( ͡⚆ ͜ʖ ͡⚆ ) (‿ˠ‿)
SpicyMags.xyz

Autumn Of Communion - Zosimus Alchemista (2019) [Official Digital Download 24/96]

Posted By: delpotro
Autumn Of Communion - Zosimus Alchemista (2019) [Official Digital Download 24/96]

Autumn Of Communion - Zosimus Alchemista (2019)
FLAC (tracks) 24-bit/96 kHz | Front Cover | Time - 75:26 minutes | 1,42 GB
Electronic, Ambient | Label: Fantasy Enhancing, Official Digital Download

Mick Chillage and Lee Norris come together as Autumn Of Communion. Between them, their music stretches into the deepest roots of modern ambient music. Zosimus Alchemista the type of music that breaks down boundaries and epitomizes the true early 90's ambient sound and arguably, Autumn Of Communion is the purest distillation of their combined work.

Tracklist:
1. Keys of Mercy (11:28)
2. Zosimus Alchemista (15:18)
3. Letters to Theosebeia (12:25)
4. Who Goes There? (19:47)
5. Divine Water (16:27)

foobar2000 1.4 / Dynamic Range Meter 1.1.1
log date: 2019-05-08 21:58:36

––––––––––––––––––––––––––––––––––––––––
Analyzed: Autumn Of Communion / Zosimus Alchemista
––––––––––––––––––––––––––––––––––––––––

DR Peak RMS Duration Track
––––––––––––––––––––––––––––––––––––––––
DR11 -0.51 dB -13.93 dB 11:28 ?-Keys Of Mercy
DR11 -0.63 dB -14.93 dB 15:18 ?-Zosimus Alchemista
DR10 -0.25 dB -14.19 dB 12:25 ?-Letters To Theosebeia
DR11 -0.60 dB -15.41 dB 19:47 ?-Who Goes There?
DR10 -0.27 dB -12.60 dB 16:27 ?-Divine Water
––––––––––––––––––––––––––––––––––––––––

Number of tracks: 5
Official DR value: DR11

Samplerate: 96000 Hz
Channels: 2
Bits per sample: 24
Bitrate: 2710 kbps
Codec: FLAC
================================================================================


Thanks to the Original customer!