Tags
Language
Tags

Orchester der J.S. Bach-Stiftung & Rudolf Lutz - Bach Cantatas, Vol. 35 (Live) (2021) [Official Digital Download]

Posted By: delpotro
Orchester der J.S. Bach-Stiftung & Rudolf Lutz - Bach Cantatas, Vol. 35 (Live) (2021) [Official Digital Download]

Orchester der J.S. Bach-Stiftung & Rudolf Lutz - Bach Cantatas, Vol. 35 (Live) (2021)
FLAC (tracks) 24-bit/44,1 kHz | Front Cover & Digital Booklet | Time - 79:38 minutes | 798 MB
Classical, Vocal | Label: J.S. Bach-Stiftung, Official Digital Download

For once, a recitative is the focus of a cantata. In BWV 47, the opening chorus, two arias, and the final chorale are grouped around the central statement "Mankind is dirt, stench, earth and ashes," which can hardly be surpassed in clarity. It takes a soloist with a powerful voice and experience of life to get the message across credibly!

Tracklist:
01. Bach: Ich hatte viel Bekümmernis, BWV 21: No. 1, Sinfoinia (Live)
02. Bach: Ich hatte viel Bekümmernis, BWV 21: No. 2, Ich hatte viel Bekümmernis in meinem Herzen (Live)
03. Bach: Ich hatte viel Bekümmernis, BWV 21: No. 3, Seufzer, Tränen, Kummer, Not (Live)
04. Bach: Ich hatte viel Bekümmernis, BWV 21: No. 4, Wie hast du dich, mein Gott (Arr. for Soprano) [Live]
05. Bach: Ich hatte viel Bekümmernis, BWV 21: No. 5, Bäche von gesalznen Zähren (Arr. for Soprano) [Live]
06. Bach: Ich hatte viel Bekümmernis, BWV 21: No. 6, Was betrübst du dich, meine Seele (Live)
07. Bach: Ich hatte viel Bekümmernis, BWV 21: No. 7, Ach Jesu, meine Ruh (Live)
08. Bach: Ich hatte viel Bekümmernis, BWV 21: No. 8, Komm, mein Jesu, und erquicke (Live)
09. Bach: Ich hatte viel Bekümmernis, BWV 21: No. 9, Sei nun wieder zufrieden, meine Seele (Live)
10. Bach: Ich hatte viel Bekümmernis, BWV 21: No. 10, Erfreue dich, Seele, erfreue dich, Herze (Arr. for Soprano) [Live]
11. Bach: Ich hatte viel Bekümmernis, BWV 21: No. 11, Das Lamm, das erwürget ist (Live)
12. Bach: Liebster Jesu, mein Verlangen, BWV 32: No. 1, Liebster Jesu, mein Verlange (Live)
13. Bach: Liebster Jesu, mein Verlangen, BWV 32: No. 2, Was ists, daß du mich gesuchet? (Live)
14. Bach: Liebster Jesu, mein Verlangen, BWV 32: No. 3, Hier in meines Vaters Stätte (Live)
15. Bach: Liebster Jesu, mein Verlangen, BWV 32: No. 4, Ach! heiliger und großer Gott (Live)
16. Bach: Liebster Jesu, mein Verlangen, BWV 32: No. 5, Nun verschwinden alle Plagen (Live)
17. Bach: Liebster Jesu, mein Verlangen, BWV 32: No. 6, Mein Gott, öffne mir die Pforten (Live)
18. Bach: Wer sich selbst erhöhet, der soll erniedriget werden, BWV 47: No. 1, Wer sich selbst erhöhet, der soll erniedriget werden (Live)
19. Bach: Wer sich selbst erhöhet, der soll erniedriget werden, BWV 47: No. 2, Wer ein wahrer Christ will heißen (Live)
20. Bach: Wer sich selbst erhöhet, der soll erniedriget werden, BWV 47: No. 3, Der Mensch ist Kot, Stank, Asch und Erde (Live)
21. Bach: Wer sich selbst erhöhet, der soll erniedriget werden, BWV 47: No. 4, Jesu, beuge doch mein Herze (Live)
22. Bach: Wer sich selbst erhöhet, der soll erniedriget werden, BWV 47: No. 5, Der zeitlichen Ehrn will ich gern entbehrn (Live)

foobar2000 1.4.1 / Dynamic Range Meter 1.1.1
log date: 2021-05-06 10:46:43

––––––––––––––––––––––––––––––––––––––––
Analyzed: Orchester der J.S. Bach-Stiftung & Rudolf Lutz / Bach Cantatas, Vol. 35 (Live)
––––––––––––––––––––––––––––––––––––––––

DR Peak RMS Duration Track
––––––––––––––––––––––––––––––––––––––––
DR11 -7.74 dB -22.36 dB 3:05 01-Bach: Ich hatte viel Bekümmernis, BWV 21: No. 1, Sinfoinia (Live)
DR12 -1.34 dB -17.71 dB 3:21 02-Bach: Ich hatte viel Bekümmernis, BWV 21: No. 2, Ich hatte viel Bekümmernis in meinem Herzen (Live)
DR16 -1.19 dB -21.66 dB 4:05 03-Bach: Ich hatte viel Bekümmernis, BWV 21: No. 3, Seufzer, Tränen, Kummer, Not (Live)
DR13 -1.20 dB -18.91 dB 1:31 04-Bach: Ich hatte viel Bekümmernis, BWV 21: No. 4, Wie hast du dich, mein Gott (Arr. for Soprano) [Live]
DR14 -1.21 dB -20.16 dB 5:54 05-Bach: Ich hatte viel Bekümmernis, BWV 21: No. 5, Bäche von gesalznen Zähren (Arr. for Soprano) [Live]
DR12 -2.36 dB -18.33 dB 3:21 06-Bach: Ich hatte viel Bekümmernis, BWV 21: No. 6, Was betrübst du dich, meine Seele (Live)
DR15 -1.20 dB -20.25 dB 4:30 07-Bach: Ich hatte viel Bekümmernis, BWV 21: No. 7, Ach Jesu, meine Ruh (Live)
DR12 -3.78 dB -21.77 dB 0:52 08-Bach: Ich hatte viel Bekümmernis, BWV 21: No. 8, Komm, mein Jesu, und erquicke (Live)
DR12 -4.10 dB -19.34 dB 4:34 09-Bach: Ich hatte viel Bekümmernis, BWV 21: No. 9, Sei nun wieder zufrieden, meine Seele (Live)
DR14 -1.60 dB -21.44 dB 3:03 10-Bach: Ich hatte viel Bekümmernis, BWV 21: No. 10, Erfreue dich, Seele, erfreue dich, Herze (Arr. for Soprano) [Live]
DR10 -1.13 dB -14.54 dB 3:16 11-Bach: Ich hatte viel Bekümmernis, BWV 21: No. 11, Das Lamm, das erwürget ist (Live)
DR14 -1.40 dB -19.63 dB 5:28 12-Bach: Liebster Jesu, mein Verlangen, BWV 32: No. 1, Liebster Jesu, mein Verlange (Live)
DR12 -6.61 dB -25.62 dB 0:28 13-Bach: Liebster Jesu, mein Verlangen, BWV 32: No. 2, Was ists, daß du mich gesuchet? (Live)
DR14 -5.40 dB -24.17 dB 7:07 14-Bach: Liebster Jesu, mein Verlangen, BWV 32: No. 3, Hier in meines Vaters Stätte (Live)
DR13 -1.40 dB -18.71 dB 2:27 15-Bach: Liebster Jesu, mein Verlangen, BWV 32: No. 4, Ach! heiliger und großer Gott (Live)
DR14 -1.40 dB -20.21 dB 5:13 16-Bach: Liebster Jesu, mein Verlangen, BWV 32: No. 5, Nun verschwinden alle Plagen (Live)
DR12 -3.74 dB -19.03 dB 1:21 17-Bach: Liebster Jesu, mein Verlangen, BWV 32: No. 6, Mein Gott, öffne mir die Pforten (Live)
DR13 -1.18 dB -17.61 dB 5:14 18-Bach: Wer sich selbst erhöhet, der soll erniedriget werden, BWV 47: No. 1, Wer sich selbst erhöhet, der soll erniedriget werden (Live)
DR15 -0.41 dB -21.29 dB 8:17 19-Bach: Wer sich selbst erhöhet, der soll erniedriget werden, BWV 47: No. 2, Wer ein wahrer Christ will heißen (Live)
DR15 -0.38 dB -20.53 dB 1:39 20-Bach: Wer sich selbst erhöhet, der soll erniedriget werden, BWV 47: No. 3, Der Mensch ist Kot, Stank, Asch und Erde (Live)
DR15 -2.77 dB -21.76 dB 4:00 21-Bach: Wer sich selbst erhöhet, der soll erniedriget werden, BWV 47: No. 4, Jesu, beuge doch mein Herze (Live)
DR11 -4.19 dB -20.71 dB 0:53 22-Bach: Wer sich selbst erhöhet, der soll erniedriget werden, BWV 47: No. 5, Der zeitlichen Ehrn will ich gern entbehrn (Live)
––––––––––––––––––––––––––––––––––––––––

Number of tracks: 22
Official DR value: DR13

Samplerate: 44100 Hz
Channels: 2
Bits per sample: 24
Bitrate: 1081 kbps
Codec: FLAC
================================================================================


Thanks to the Original customer!