Bad Religion - Christmas Songs (2013) [Official Digital Download]

Posted By: El Misha
Bad Religion - Christmas Songs (2013) [Official Digital Download]

Bad Religion - Christmas Songs (2013)
FLAC (tracks) 24-bit/44.10 kHz | Time - 18:57 | 236 MB
Studio Master, Official Digital Download | Artwork: Front cover

Who better to help you celebrate that most wonderful time of the year than holiday favorites Bad Religion? Bad Religion have threatened to record an album of seasonal classics for years, and now they've gone and done it, tackling eight chestnuts in their classic punk rock style.



Tracklist:

01. Hark!The Herald Angels Sing
02. O Come All Ye Faithful
03. O Come, O Come Emmanuel
04. White Christmas
05. Little Drummer Boy
06. God Rest Ye Merry Gentlemen
07. What Child Is This?
08. Angels We Have Heard On High
09. American Jesus(Andy Wallace Mix)

foobar2000 1.4 / Dynamic Range Meter 1.1.1
log date: 2021-06-11 10:28:04

––––––––––––––––––––––––––––––––––––––––
Analyzed: Bad Religion / Christmas Songs
––––––––––––––––––––––––––––––––––––––––

DR Peak RMS Duration Track
––––––––––––––––––––––––––––––––––––––––
DR4 -1.20 dB -7.75 dB 1:59 01-Hark! The Herald Angels Sing
DR4 -1.20 dB -5.98 dB 2:05 02-O Come All Ye Faithful
DR4 -1.20 dB -6.21 dB 2:08 03-O Come, O Come Emmanuel
DR4 -1.20 dB -6.20 dB 1:49 04-White Christmas
DR4 -1.20 dB -6.75 dB 2:05 05-Little Drummer Boy
DR3 -1.20 dB -6.25 dB 1:40 06-God Rest Ye Merry Gentlemen
DR4 -1.20 dB -6.38 dB 1:53 07-What Child Is This?
DR4 -1.20 dB -6.41 dB 2:08 08-Angels We Have Heard On High
DR5 -1.20 dB -7.06 dB 3:17 09-American Jesus (Andy Wallace Mix)
––––––––––––––––––––––––––––––––––––––––

Number of tracks: 9
Official DR value: DR4

Samplerate: 44100 Hz
Channels: 2
Bits per sample: 24
Bitrate: 1728 kbps
Codec: FLAC
================================================================================



Thanks to the Original customer!