B.B. King & Eric Clapton - Riding with the King (20th Anniversary Deluxe Edition) (2000/2020) [Official Digital Download 24/96]

Posted By: delpotro
B.B. King & Eric Clapton - Riding with the King (20th Anniversary Deluxe Edition) (2000/2020) [Official Digital Download 24/96]

B.B. King & Eric Clapton - Riding with the King (20th Anniversary Deluxe Edition) (2000/2020)
FLAC (tracks) 24-bit/96 kHz | Front Cover | Time - 70:59 minutes | 1,48 GB
Blues Rock | Label: Reprise Records, Official Digital Download

Eric Clapton & B.B. King‘s album from 2000, Riding With The King, will be reissued next month to mark its 20th anniversary. The 12-track album of all-new studio recordings of blues classics and contemporary songs has been remastered from the original tapes (by Bob Ludwig) and is expanded, featuring two unreleased bonus tracks (recorded during the original sessions). Original co-producer Simon Climie rose to the occasion and produced and mixed these two additional numbers especially for this reissue.

The album features contributions from musicians such as Andy Fairweather Low, Steve Gadd, Nathan East, Susannah and Wendy Melvoin, and Jim Keltner. Arif Mardin contributed string arrangements and orchestration to two tracks.

Tracklist:
1. Riding with the King (04:23)
2. Ten Long Years (04:40)
3. Key to the Highway (03:40)
4. Marry You (04:59)
5. Three O'Clock Blues (08:36)
6. Help the Poor (05:06)
7. I Wanna Be (04:45)
8. Worried Life Blues (04:25)
9. Days of Old (03:00)
10. When My Heart Beats Like a Hammer (07:09)
11. Hold On I'm Coming (06:20)
12. Come Rain or Come Shine (04:12)
13. Rollin' and Tumblin' (04:32)
14. Let Me Love You (05:07)

foobar2000 1.4.1 / Dynamic Range Meter 1.1.1
log date: 2020-06-26 03:08:58

––––––––––––––––––––––––––––––––––––––––
Analyzed: B.B. King & Eric Clapton / Riding with the King (Deluxe Edition)
––––––––––––––––––––––––––––––––––––––––

DR Peak RMS Duration Track
––––––––––––––––––––––––––––––––––––––––
DR8 -0.01 dB -9.78 dB 4:23 01-Riding with the King
DR9 0.00 dB -9.96 dB 4:41 02-Ten Long Years
DR10 -0.02 dB -12.76 dB 3:40 03-Key to the Highway
DR7 -0.07 dB -8.96 dB 4:59 04-Marry You
DR6 0.00 dB -8.85 dB 8:37 05-Three O'Clock Blues
DR6 -0.07 dB -7.92 dB 5:06 06-Help the Poor
DR8 -0.04 dB -9.20 dB 4:46 07-I Wanna Be
DR8 -0.10 dB -10.14 dB 4:26 08-Worried Life Blues
DR6 -0.10 dB -7.68 dB 3:00 09-Days of Old
DR7 0.00 dB -8.95 dB 7:10 10-When My Heart Beats Like a Hammer
DR6 -0.10 dB -7.51 dB 6:20 11-Hold On I'm Coming
DR7 -0.05 dB -9.84 dB 4:12 12-Come Rain or Come Shine
DR7 -0.10 dB -8.48 dB 4:32 13-Rollin' and Tumblin'
DR7 -0.10 dB -8.92 dB 5:07 14-Let Me Love You
––––––––––––––––––––––––––––––––––––––––

Number of tracks: 14
Official DR value: DR7

Samplerate: 96000 Hz
Channels: 2
Bits per sample: 24
Bitrate: 3003 kbps
Codec: FLAC
================================================================================


Thanks to the Original customer!