Tags
Language
Tags

Big Brave - Vital (2021) [Official Digital Download]

Posted By: delpotro
Big Brave - Vital (2021) [Official Digital Download]

Big Brave - Vital (2021)
FLAC (tracks) 24-bit/44,1 kHz | Front Cover | Time - 38:38 minutes | 417 MB
Experimental Metal, Post-Metal, Female Vocal | Label: Southern Lord Recordings, Official Digital Download

Minimalism and instinct, structure/freedom and meticulous timing form the cornerstones of BIG | BRAVE’s precise, rhythmical sound. On their new album VITAL, the recording features the core trio Robin Wattie, Mathieu Ball and Tasy Hudson, for their most collaborative record they’ve made so far. The band comments, “having cut our teeth in very different musical backgrounds respectively, our intuitions vary, which has an interesting effect on our individual approaches and ears.” Lyrically, VITAL explores the weight of race and gender, endurance and navigating other people’s behaviors, observation and protest. The band further commented “this album involves what it means navigating the outside world in a racialized body and what it does to the psyche as a whole while exploring individual worth within this reality.”

On VITAL, BIG | BRAVE once again made the trek down to Rhode Island to record with Seth Manchester at Machines with Magnets. They remark “we fully trust his instinct as an engineer and his creative output, getting to experiment with textures, concepts, layers, and with pretty much every single recorded sound, the process of making records with Seth is an absolute journey in sonic exploration”.

Tracklist:
1. Abating the Incarnation of Matter (07:22)
2. Half Breed (08:08)
3. Wited, Still and All… (04:22)
4. Of This Ilk (09:37)
5. Vital (09:09)

foobar2000 1.4.1 / Dynamic Range Meter 1.1.1
log date: 2021-06-25 19:42:21

––––––––––––––––––––––––––––––––––––––––
Analyzed: BIG|BRAVE / Vital
––––––––––––––––––––––––––––––––––––––––

DR Peak RMS Duration Track
––––––––––––––––––––––––––––––––––––––––
DR4 -0.30 dB -5.90 dB 7:22 01-Abating the Incarnation of Matter
DR4 -0.30 dB -7.19 dB 8:08 02-Half Breed
DR7 -0.30 dB -10.15 dB 4:22 03-Wited, Still and All…
DR5 -0.30 dB -7.59 dB 9:37 04-Of This Ilk
DR5 -0.30 dB -8.38 dB 9:09 05-Vital
––––––––––––––––––––––––––––––––––––––––

Number of tracks: 5
Official DR value: DR5

Samplerate: 44100 Hz
Channels: 2
Bits per sample: 24
Bitrate: 1510 kbps
Codec: FLAC
================================================================================


Thanks to the Original customer!