Tags
Language
Tags

Billy Strings - 2021-08-06 - Westville Music Bowl, New Haven, CT (2021) [Official Digital Download 24/48]

Posted By: delpotro
Billy Strings - 2021-08-06 - Westville Music Bowl, New Haven, CT (2021) [Official Digital Download 24/48]

Billy Strings - 2021-08-06 - Westville Music Bowl, New Haven, CT (2021)
FLAC (tracks) 24-bit/48 kHz | Front Cover | Time - 119:48 minutes | 1,27 GB
Bluegrass | Label: nugs net, Official Digital Download

Billy Strings live at Westville Music Bowl, New Haven, CT, 6 August 2021.

Tracklist:
Disc 1
01. Tuning
02. Hollow Heart
03. Fire Line
04. Morning Light
05. Home Of The Red Fox
06. Ole Slewfoot
07. Sitting Here In Limbo
08. Pretty Daughter
09. Angel Band
10. Big Mon
11. These Old Blues

Disc 2
01. Pyramid Country
02. Train Train
03. If I Lose
04. Loser
05. Fire On My Tongue
06. Leaders
07. Wargasm

foobar2000 1.4.1 / Dynamic Range Meter 1.1.1
log date: 2021-08-11 13:14:52

––––––––––––––––––––––––––––––––––––––––
Analyzed: Billy Strings / 2021/08/06 New Haven, CT
––––––––––––––––––––––––––––––––––––––––

DR Peak RMS Duration Track
––––––––––––––––––––––––––––––––––––––––
DR11 -0.10 dB -18.56 dB 1:14 01-Tuning
DR13 -0.10 dB -15.71 dB 3:35 02-Hollow Heart
DR11 -0.10 dB -13.26 dB 13:52 03-Fire Line
DR15 -0.10 dB -18.67 dB 5:59 04-Morning Light
DR11 -0.10 dB -13.65 dB 17:55 05-Home Of The Red Fox
DR11 -0.10 dB -13.62 dB 4:16 06-Ole Slewfoot
DR14 -0.10 dB -16.75 dB 8:30 07-Sitting Here In Limbo
DR11 -0.10 dB -13.50 dB 9:44 08-Pretty Daughter
DR12 -0.10 dB -17.34 dB 2:18 09-Angel Band
DR12 -0.10 dB -15.09 dB 3:50 10-Big Mon
DR13 -0.10 dB -15.68 dB 4:19 11-These Old Blues
DR11 -0.10 dB -14.88 dB 8:23 01-Pyramid Country
DR12 -0.10 dB -14.10 dB 5:23 02-Train Train
DR14 -0.10 dB -16.35 dB 3:07 03-If I Lose
DR13 -0.10 dB -16.82 dB 8:48 04-Loser
DR12 -0.10 dB -14.74 dB 3:42 05-Fire On My Tongue
DR14 -0.10 dB -18.88 dB 5:43 06-Leaders
DR10 -0.10 dB -12.76 dB 9:14 07-Wargasm
––––––––––––––––––––––––––––––––––––––––

Number of tracks: 18
Official DR value: DR12

Samplerate: 48000 Hz
Channels: 2
Bits per sample: 24
Bitrate: 1532 kbps
Codec: FLAC
================================================================================


Thanks to the Original customer!