Tags
Language
Tags

Billy Strings - 2022-05-08 - Ryman Auditorium, Nashville, TN (2022) [Official Digital Download 24/48]

Posted By: delpotro
Billy Strings - 2022-05-08 - Ryman Auditorium, Nashville, TN (2022) [Official Digital Download 24/48]

Billy Strings - 2022-05-08 - Ryman Auditorium, Nashville, TN (2022)
FLAC (tracks) 24-bit/48 kHz | Front Cover | Time - 190:40 minutes | 2,07 GB
Bluegrass | Label: nugs net, Official Digital Download

Billy Strings live at Ryman Auditorium, Nashville, TN, 8 May 2022.

Tracklist:
Set 1:
01. Tuning
02. Secrets
03. This Old World
04. The Train That Carried My Girl From Town (Doc Watson cover)
05. Black Mountain Rag ([traditional] cover)
06. Love & Regret
07. Close By (Bill Monroe and the Bluegrass Boys cover) (w/ Ronnie McCoury - mandolin)
08. Foggy Mountain Top (The Carter Family cover) (w/ Ronnie McCoury - mandolin)
09. Lonesome Moonlight Waltz (Bill Monroe cover) (w/ Ronnie McCoury - mandolin)
10. Highway Hypnosis (w/ Ronnie McCoury - mandolin)
11. Dusty Miller (Bill Monroe cover) (w/ Ronnie McCoury - mandolin)
12. John Deere Tractor (Larry Sparks cover)
13. Pretty Daughter (Danny Barnes cover)
14. Over the Falls (Primus cover) (w/ Les Claypool - bass)
15. John the Fisherman (Primus cover) (w/ Les Claypool - bass)
16. All Fall Down (John Hartford cover) (w/ Les Claypool - bass)

Set 2:
01. Taking Water
02. End of the Rainbow (Frank Wakefield cover)
03. Rank Stranger (The Stanley Brothers cover)
04. Mama Tried (Merle Haggard cover) (w/ Bob Weir - guitar)
05. Dark Star (Grateful Dead cover) (w/ Bob Weir - guitar)
06. Samson and Delilah (traditional) (w/ Bob Weir - guitar)
07. Home
08. John Henry [traditional) (w/ Marty Stuart - mandolin)
09. Old Mexico (Marty Stuart and His Fabulous Superlatives cover)
10. Air Mail Special (Jim and Jesse cover)
11. Hide & Seek

Encore:
12. Rawhide (Frankie Laine cover) (w/ Ronnie McCoury - mandolin & Marty Stuart - Mandolin)
13. Will the Circle Be Unbroken (The Carter Family cover) (w/ Ronnie McCoury - mandolin, Marty Stuart - Mandolin & Bob Weir - guitar)

foobar2000 1.4.1 / Dynamic Range Meter 1.1.1
log date: 2022-05-16 14:12:14

––––––––––––––––––––––––––––––––––––––––
Analyzed: Billy Strings / 2022/05/08 Nashville, TN
––––––––––––––––––––––––––––––––––––––––

DR Peak RMS Duration Track
––––––––––––––––––––––––––––––––––––––––
DR17 -0.10 dB -23.40 dB 1:41 01-Tuning
DR10 -0.10 dB -11.53 dB 4:47 02-Secrets
DR10 -0.10 dB -12.94 dB 2:52 03-This Old World
DR9 -0.10 dB -10.69 dB 2:49 04-The Train That Carried My Girl From Town
DR10 -0.10 dB -11.97 dB 2:29 05-Black Mountain Rag
DR13 -0.10 dB -17.18 dB 7:34 06-Love And Regret
DR11 -0.10 dB -13.84 dB 2:55 07-Close By
DR9 -0.10 dB -11.53 dB 2:59 08-Foggy Mountain Top
DR15 -0.10 dB -17.95 dB 7:03 09-Lonesome Moonlight Waltz
DR8 -0.10 dB -11.25 dB 7:55 10-Highway Hypnosis
DR9 -0.10 dB -11.88 dB 5:48 11-Dusty Miller
DR10 -0.10 dB -14.62 dB 4:46 12-John Deere Tractor
DR9 -0.10 dB -13.03 dB 12:16 13-Pretty Daughter
DR8 -0.10 dB -11.74 dB 8:10 14-Over The Falls
DR8 -0.10 dB -10.94 dB 6:32 15-John The Fisherman
DR7 -0.10 dB -10.47 dB 9:17 16-All Fall Down
DR9 -0.10 dB -12.90 dB 6:10 01-Taking Water
DR9 -0.10 dB -11.44 dB 12:22 02-End Of The Rainbow
DR12 -0.10 dB -15.87 dB 4:40 03-Rank Stranger
DR8 -0.10 dB -10.97 dB 4:31 04-Mama Tried
DR12 -0.10 dB -15.54 dB 16:38 05-Dark Star
DR8 -0.10 dB -11.37 dB 9:29 06-Samson And Delilah
DR8 -0.10 dB -12.16 dB 10:27 07-Home
DR10 -0.10 dB -12.01 dB 5:41 08-John Henry
DR10 -0.10 dB -13.20 dB 3:04 09-Old Mexico
DR9 -0.10 dB -11.52 dB 4:32 10-Air Mail Special
DR8 -0.10 dB -11.86 dB 13:13 11-Hide And Seek
DR14 -0.10 dB -17.10 dB 5:24 12-Raw Hide
DR14 -0.10 dB -18.65 dB 4:39 13-Will The Circle Be Unbroken?
––––––––––––––––––––––––––––––––––––––––

Number of tracks: 29
Official DR value: DR10

Samplerate: 48000 Hz
Channels: 2
Bits per sample: 24
Bitrate: 1461 kbps
Codec: FLAC
================================================================================


Thanks to the Original customer!