Tags
Language
Tags

Billy Strings - 2022-04-01 - Palisades Tahoe, CA (2022) [Official Digital Download 24/48]

Posted By: delpotro
Billy Strings - 2022-04-01 - Palisades Tahoe, CA (2022) [Official Digital Download 24/48]

Billy Strings - 2022-04-01 - Palisades Tahoe, CA (2022)
FLAC (tracks) 24-bit/48 kHz | Front Cover | Time - 145:44 minutes | 1,48 GB
Bluegrass | Label: nugs net, Official Digital Download

Billy Strings live at Palisades Tahoe, CA, April 1, 2022.

Tracklist:
Set 1
01. tuning
02. Cold On The Shoulder
03. Red Daisy
04. Away From The Mire
05. Long Forgotten Dream
06. Ralph's Banjo Special
07. Must Be Seven
08. Love And Regret
09. You Won't Be Satisfied That Way
10. Nothing's Working
11. Streamline Cannonball
12. Hide And Seek
13. tuning
14. Fireline

Set 2
01. Running The Route
02. End Of The Rainbow
03. Summertime
04. Old Man At The Mill
05. All Fall Down
06. Look Up, Look Down That Lonesome Road
07. Way Downtown
08. West Dakota Rose
09. Reuben's Train
10. Fireline
11. Y'All Come

foobar2000 1.4.1 / Dynamic Range Meter 1.1.1
log date: 2022-04-07 15:52:11

––––––––––––––––––––––––––––––––––––––––
Analyzed: Billy Strings / 2022/04/01 Palisades Tahoe, CA
––––––––––––––––––––––––––––––––––––––––

DR Peak RMS Duration Track
––––––––––––––––––––––––––––––––––––––––
DR17 -0.10 dB -24.08 dB 1:33 01-tuning
DR13 -0.10 dB -16.74 dB 2:24 02-Cold On The Shoulder
DR13 -0.10 dB -16.09 dB 3:03 03-Red Daisy
DR13 -0.10 dB -17.00 dB 11:11 04-Away From The Mire
DR12 -0.10 dB -17.23 dB 4:45 05-Long Forgotten Dream
DR14 -0.10 dB -19.00 dB 8:16 06-Ralph's Banjo Special
DR13 -0.10 dB -16.35 dB 4:12 07-Must Be Seven
DR16 -0.10 dB -21.10 dB 6:10 08-Love And Regret
DR13 -0.10 dB -16.70 dB 2:34 09-You Won't Be Satisfied That Way
DR13 -0.10 dB -18.21 dB 3:56 10-Nothing's Working
DR13 -0.10 dB -17.31 dB 4:04 11-Streamline Cannonball
DR14 -0.10 dB -16.71 dB 8:27 12-Hide And Seek
DR13 -1.83 dB -18.59 dB 1:04 13-tuning
DR13 -0.10 dB -16.91 dB 12:47 14-Fireline
DR12 -0.10 dB -14.33 dB 2:38 01-Running The Route
DR13 -0.10 dB -17.02 dB 14:10 02-End Of The Rainbow
DR16 -0.10 dB -20.70 dB 6:34 03-Summertime
DR12 -0.10 dB -15.06 dB 4:07 04-Old Man At The Mill
DR14 -0.10 dB -17.32 dB 13:50 05-All Fall Down
DR14 -0.10 dB -18.27 dB 5:31 06-Look Up, Look Down That Lonesome Road
DR12 -0.10 dB -16.11 dB 4:05 07-Way Downtown
DR14 -0.10 dB -16.97 dB 6:52 08-West Dakota Rose
DR14 -0.10 dB -17.54 dB 7:41 09-Reuben's Train
DR13 -0.10 dB -17.93 dB 2:39 10-Fireline
DR13 -0.10 dB -16.73 dB 3:13 11-Y'All Come
––––––––––––––––––––––––––––––––––––––––

Number of tracks: 25
Official DR value: DR13

Samplerate: 48000 Hz
Channels: 2
Bits per sample: 24
Bitrate: 1477 kbps
Codec: FLAC
================================================================================


Thanks to the Original customer!