Tags
Language
Tags

Bobby Bare – The Streets Of Baltimore (1966) [Official Digital Download 24/96]

Posted By: El Misha
Bobby Bare – The Streets Of Baltimore (1966) [Official Digital Download 24/96]

Bobby Bare – The Streets Of Baltimore (1966)
FLAC (tracks) 24-bit/96.0 kHz | Time - 31:24 | 679 MB
Studio Master, Official Digital Download | Artwork: Front cover+digital booklet

He was born Robert Joseph Bare in Lawrence County, Ohio, and began his career in Springfield, Ohio. In 1953 he moved to Los Angeles, where he recorded briefly for Capitol and Challenge in the mid-1950s and signed as a writer with Opal Music.
He was born Robert Joseph Bare in Lawrence County, Ohio, and began his career in Springfield, Ohio. In 1953 he moved to Los Angeles, where he recorded briefly for Capitol and Challenge in the mid-1950s and signed as a writer with Opal Music.



Tracklist:

01-Early Morning Rain
02-Houston
03-Saginaw, Michigan
04-Take Me Home to Mama
05-Memphis, Tennessee
06-The Streets of Baltimore
07-That's How I Wanted It to Be
08-Vincennes
09-Cold and Lonely City
10-Changin' My Mind
11-There Ain't No Fun in This Town
12-Green, Green Grass of Home

foobar2000 1.4 / Dynamic Range Meter 1.1.1
log date: 2022-05-17 07:20:19

––––––––––––––––––––––––––––––––––––––––
Analyzed: Bobby Bare / Streets Of Baltimore
––––––––––––––––––––––––––––––––––––––––

DR Peak RMS Duration Track
––––––––––––––––––––––––––––––––––––––––
DR11 -0.89 dB -14.27 dB 3:26 01-Early Morning Rain
DR12 0.00 dB -15.91 dB 2:41 02-Houston
DR11 -1.61 dB -14.75 dB 3:15 03-Saginaw, Michigan
DR11 -1.21 dB -15.03 dB 2:25 04-Take Me Home to Mama
DR12 -0.39 dB -15.09 dB 2:22 05-Memphis, Tennessee
DR11 -1.73 dB -15.25 dB 2:40 06-The Streets of Baltimore
DR11 -2.98 dB -17.01 dB 2:44 07-That's How I Wanted It to Be
DR12 -2.45 dB -17.00 dB 2:10 08-Vincennes
DR11 -0.79 dB -14.84 dB 2:11 09-Cold and Lonely City
DR12 -0.70 dB -15.32 dB 2:15 10-Changin' My Mind
DR11 -0.95 dB -14.79 dB 2:37 11-There Ain't No Fun in This Town
DR10 -1.28 dB -15.28 dB 2:43 12-Green, Green Grass of Home
––––––––––––––––––––––––––––––––––––––––

Number of tracks: 12
Official DR value: DR11

Samplerate: 96000 Hz
Channels: 2
Bits per sample: 24
Bitrate: 3027 kbps
Codec: FLAC
================================================================================



Thanks to the Original customer!