Tags
Language
Tags

Booker T. & The M.G.'s - Melting Pot (Analog Remaster Reissue Vinyl) (1971/2019) [24bit/192kHz]

Posted By: delpotro
Booker T. & The M.G.'s - Melting Pot (Analog Remaster Reissue Vinyl) (1971/2019) [24bit/192kHz]

Booker T. & The M.G.'s - Melting Pot (Analog Remaster Reissue Vinyl) (1971/2019)
Vinyl Rip | FLAC (tracks) 24-bit/192 kHz | Time - 40:35 minutes | 1,4 GB | Artwork - 136 MB
Funk | Label: Craft Recordings

Melting Pot from Booker T. & The M.G.’s marked a turning point for the influential instrumental group. Released in 1971, it was the final studio album to include the original lineup of the longtime Stax house band (Booker T. Jones on keyboards, Steve Cropper on guitar, Donald “Duck” Dunn on bass guitar, and Al Jackson Jr. on drums). Comprised entirely of original material, Melting Pot finds the four-piece digging deep into some expansive Memphis soul jams.

Tracklist:
A1 – Melting Pot (08:15)
A2 – Back Home (04:40)
A3 – Chicken Pox (03:26)
A4 – Fuquawi (03:40)
B1 – Kinda Easy Like (08:43)
B2 – Hi Ride (02:36)
B3 – L.A. Jazz Song (04:18)
B4 – Sunny Monday (04:35)

foobar2000 1.5.5 / Dynamic Range Meter 1.1.1
log date: 2020-10-26 22:42:29

––––––––––––––––––––––––––––––––––––––––
Analyzed: Booker T. & The M.G.'s / Melting Pot
––––––––––––––––––––––––––––––––––––––––

DR Peak RMS Duration Track
––––––––––––––––––––––––––––––––––––––––
DR13 -2.58 dB -17.92 dB 8:17 A1-Melting Pot
DR13 -2.67 dB -18.91 dB 4:43 A2-Back Home
DR12 -3.19 dB -17.81 dB 3:31 A3-Chicken Pox
DR12 -3.02 dB -17.74 dB 3:42 A4-Fuquawi
DR13 -3.40 dB -17.93 dB 8:45 B1-Kinda Easy Like
DR13 -3.16 dB -18.27 dB 2:41 B2-Hi Ride
DR12 -3.26 dB -18.14 dB 4:22 B3-L.A. Jazz Song
DR11 -3.87 dB -17.28 dB 4:36 B4-Sunny Monday
––––––––––––––––––––––––––––––––––––––––

Number of tracks: 8
Official DR value: DR13

Samplerate: 192000 Hz
Channels: 2
Bits per sample: 24
Bitrate: 5317 kbps
Codec: FLAC
================================================================================

Lineage:

Rega P10 Turntable with Rega P10 PSU > Virgin Vinyl > Rega Apheta 3 Cartridge > PS Audio NuWave Phono Converter ADC > AudioQuest Carbon USB Cable > USB-IN > Audition CC 2019 @ 24bit float, 192kHz capture.


Processing:

24bit wav > Run through Click Repair 3.9.9 at 10/0 on DeClick > Volume Boost +1.93/1.81 DB > Remove DC Bias > Saved as 24bit,192kHz WAV > FLAC > Tagged with Discogs tagger through Foobar.

Scans:

Epson Expression 11000XL -> 16bit 600 DPI with Unsharp Mask -> Color Correction in Photoshop CC 2019 x64 -> 8bit 600DPI PNG.

Thanks to the Original customer!