Tags
Language
Tags
February 2023
Su Mo Tu We Th Fr Sa
29 30 31 1 2 3 4
5 6 7 8 9 10 11
12 13 14 15 16 17 18
19 20 21 22 23 24 25
26 27 28 1 2 3 4

Camiel Boomsma - Gerhard Hamm: Rediscovered - Bagatellen and Klavierstücke (2021) [Official Digital Download 24/96]

Posted By: delpotro
Camiel Boomsma - Gerhard Hamm: Rediscovered - Bagatellen and Klavierstücke (2021) [Official Digital Download 24/96]

Camiel Boomsma - Gerhard Hamm: Rediscovered - Bagatellen and Klavierstücke (2021)
FLAC (tracks) 24-bit/96 kHz | Front Cover & Digital Booklet | Time - 44:23 minutes | 779 MB
Classical | Label: Challenge Classics, Official Digital Download

Camiel Boomsma: Discovering the music by Dutch composer Gerhard (and his son Karel) Hamm was really a game of fate. After a recital, Carl Hamm, who is a direct descendant, gave me a stack of scores. While playing through the pieces at home I was struck by their delicacy and narrative power.

Gerhard Hamm belongs in a way to the musical family of Robert Schumann. He writes little poetic reflections on grand Romantic gestures. In these small musical poems a whole world lies hidden. Sometimes powerful and proud, sometimes vulnerable and reflective. Romantic expression beautiful in itself.

In his "Gefunden: 6 Clavierstücke in Liedform opus 18’ Gerhard Hamm's musical gift as a composer is beautifully displayed. Hamm’s craftsmanship is excellent but he never neglects poetic expression.

Tracklist:
1. Gefunden: 6 Clavierstücke in Liedform, Op. 18: No. 1, Als ich dich sah! (01:48)
2. Gefunden: 6 Clavierstücke in Liedform, Op. 18: No. 2, Könnt es sein! (02:02)
3. Gefunden: 6 Clavierstücke in Liedform, Op. 18: No. 3, Wär' ich bei dir! (01:59)
4. Bagatellen, Op. 12: No. 3, Capriccio (05:08)
5. Schetsen voor de Jeugd: Een Regendag (01:10)
6. Bagatellen, Op. 12: No. 2, Scherzo (02:57)
7. Gefunden: 6 Clavierstücke in Liedform, Op. 18: No. 4, Frage (02:36)
8. Romanze (05:08)
9. Bagatellen, Op. 12: No. 1, Canzonette (00:59)
10. Bagatellen, Op. 12: No. 4, Melodie (01:33)
11. Gefunden: 6 Clavierstücke in Liedform, Op. 18: No. 5, Ich will dein eigen sein! (02:44)
12. Gefunden: 6 Clavierstücke in Liedform, Op. 18: No. 6, Nun bist du mein! (01:59)
13. Schetsen voor de Jeugd: Angelu. Andante religioso (01:24)
14. Schetsen voor de Jeugd: Jong Leren! (01:50)
15. Bagatellen, Op. 12: No. 5, Ariette (01:49)
16. Schetsen voor de Jeugd: 't' Schemeruurtje' (02:20)
17. From Charakterstücke für Klavier, Op. 15: Etude (06:47)

foobar2000 1.4.1 / Dynamic Range Meter 1.1.1
log date: 2021-06-04 06:23:09

––––––––––––––––––––––––––––––––––––––––
Analyzed: Camiel Boomsma / Rediscovered - Bagatellen and Clavierstücke
––––––––––––––––––––––––––––––––––––––––

DR Peak RMS Duration Track
––––––––––––––––––––––––––––––––––––––––
DR11 -4.37 dB -21.72 dB 1:49 01-Hamm: Gefunden: 6 Clavierstücke in Liedform Op.18: No.1 ‘Als ich dich sah!’
DR13 -3.32 dB -22.27 dB 2:02 02-Hamm: Gefunden: 6 Clavierstücke in Liedform Op.18: No.2 ‘Könnt es sein!’
DR14 0.00 dB -18.51 dB 2:00 03-Hamm: Gefunden: 6 Clavierstücke in Liedform Op.18: No.3 ‘Wär' ich bei dir!’
DR13 -0.91 dB -21.76 dB 5:08 04-Hamm: Bagatellen Op.12: No.3 ‘Capriccio’
DR11 -2.85 dB -19.15 dB 1:11 05-Hamm: Schetsen voor de Jeugd: ‘Een Regendag'
DR13 -0.01 dB -17.89 dB 2:58 06-Hamm: Bagatellen Op.12: No.2 - ‘Scherzo’
DR13 -3.62 dB -23.69 dB 2:37 07-Hamm: Gefunden: 6 Clavierstücke in Liedform Op.18: No.4 ‘Frage’
DR14 -4.59 dB -24.65 dB 5:09 08-Hamm: Romanze
DR11 -3.26 dB -21.10 dB 0:59 09-Hamm: Bagatellen Op.12: No.1 ‘Canzonette’
DR12 -1.47 dB -20.49 dB 1:34 10-Hamm: Bagatellen Op.12: No.4 ‘Melodie’
DR13 -4.76 dB -23.21 dB 2:45 11-Hamm: Gefunden: 6 Clavierstücke in Liedform Op.18: No.5 ‘Ich will dein eigen sein!’
DR13 0.00 dB -17.92 dB 2:00 12-Hamm: Gefunden: 6 Clavierstücke in Liedform Op.18: No.6 ‘Nun bist du mein!’
DR12 -13.83 dB -30.82 dB 1:25 13-Hamm: Schetsen voor de Jeugd : ‘Angelus - Andante religioso’
DR13 -1.51 dB -20.77 dB 1:51 14-Hamm: Schetsen voor de Jeugd : 'Jong Leren!'
DR14 -0.74 dB -22.27 dB 1:50 15-Hamm: Bagatellen Op.12: No.5 ‘Ariette’
DR14 -7.85 dB -27.11 dB 2:21 16-Hamm: Schetsen voor de Jeugd : 't' Schemeruurtje'
DR14 0.00 dB -19.68 dB 6:47 17-Hamm: From Charakterstücke für Klavier Op.15: ‘Etude’
––––––––––––––––––––––––––––––––––––––––

Number of tracks: 17
Official DR value: DR13

Samplerate: 96000 Hz
Channels: 2
Bits per sample: 24
Bitrate: 2459 kbps
Codec: FLAC
================================================================================


Thanks to the Original customer!