Capella de la Torre & Katharina Bäuml - Praetorius dances (2021) [Official Digital Download 24/48]

Posted By: delpotro
Capella de la Torre & Katharina Bäuml - Praetorius dances (2021) [Official Digital Download 24/48]

Capella de la Torre & Katharina Bäuml - Praetorius dances (2021)
FLAC (tracks) 24-bit/48 kHz | Front Cover & Digital Booklet | Time - 63:01 minutes | 658 MB
Classical, Vocal | Label: deutsche harmonia mundi, Official Digital Download

A glance at the art of the courtly dance in bygone times reveals various trends, some of which overlap, while others compete with one another. And in a third group of cases there may also be an exchange of ideas. It all depends on what is central to our enquiry: the period, the country of origin or the individual courts, with their separate spheres of influence. Among the elements that characterize these trends are the steps, the sequence of steps, the principles underpinning the dancers’ movements and the figures traced out within the space in question. The inspiration for more and more new combinations of steps to create new dances stemmed from the diplomatic exchanges between individual courts, sometimes in those instances when a young new ruler brought her parents’ dancing master with her from her former court to the new centre of her activities.

Tracklist:
1. Terpsichore, Musarum Aoniarum: Ballet, TMA 268 (03:13)
2. Si tu veux apprendre les pas à danser (03:36)
3. Terpsichore, Musarum Aoniarum: Bransle simple de novelle, TMA 2 (03:58)
4. Terpsichore, Musarum Aoniarum: Bransle double de Poictu, TMA 9 (03:22)
5. La bonne nouvelle (03:58)
6. Terpsichore, Musarum Aoniarum: Bransle de la Torche, TMA 15 (01:56)
7. Terpsichore, Musarum Aoniarum: La Bourée, TMA 32 (04:01)
8. Un gentil amoureux (02:30)
9. Terpsichore, Musarum Aoniarum: Pavane de Spaigne, TMA 30 (03:03)
10. Terpsichore, Musarum Aoniarum: Ballet des Amazones, TMA 270 (02:15)
11. Pavan: Belle qui tiens ma vie (03:00)
12. Terpsichore, Musarum Aoniarum: Gaillarde, TMA 287 (02:10)
13. Le recueil des plus belles et excellentes chansons: Une Jeune Fillette (04:23)
14. Terpsichore, Musarum Aoniarum: Ballet des Coqs, TMA 254 (02:39)
15. Terpsichore, Musarum Aoniarum: Ballet des Matelotz, TMA 280 (01:59)
16. Terpsichore, Musarum Aoniarum: Passameze, TMA 283 (03:33)
17. Si j'aime ou non, j'en dis rien (02:21)
18. 19 chansons nouvelles a quatre parties, Livre 8, No. 4: Il estoit une fillette (03:33)
19. Terpsichore, Musarum Aoniarum: Volte, TMA 201 (02:14)
20. Terpsichore, Musarum Aoniarum: Volte, TMA 210 (02:30)
21. Branles et Les Gavottes, TMA 1: Gavottes 1-3 / Le receuil des plus belles et excellentes chansons: Vostre esprit recréatif (02:24)

foobar2000 1.4.1 / Dynamic Range Meter 1.1.1
log date: 2021-06-18 11:47:44

––––––––––––––––––––––––––––––––––––––––
Analyzed: Capella de la Torre & Katharina Bäuml / Praetorius dances
––––––––––––––––––––––––––––––––––––––––

DR Peak RMS Duration Track
––––––––––––––––––––––––––––––––––––––––
DR11 -3.04 dB -16.38 dB 3:14 01-Praetorius: Terpsichore, Musarum Aoniarum: Ballet, TMA 268
DR11 -1.41 dB -17.22 dB 3:37 02-Guédron: Si tu veux apprendre les pas à danser
DR12 -2.13 dB -16.81 dB 3:59 03-Praetorius: Terpsichore, Musarum Aoniarum: Bransle simple de novelle, TMA 2
DR12 -1.95 dB -18.05 dB 3:23 04-Praetorius: Terpsichore, Musarum Aoniarum: Bransle double de Poictu, TMA 9
DR13 -1.38 dB -18.83 dB 3:58 05-Traditional: La bonne nouvelle
DR11 -2.64 dB -16.36 dB 1:57 06-Praetorius: Terpsichore, Musarum Aoniarum: Bransle de la Torche, TMA 15
DR12 -2.88 dB -18.04 dB 4:02 07-Praetorius: Terpsichore, Musarum Aoniarum: La Bourée, TMA 32
DR11 -3.36 dB -17.07 dB 2:31 08-Jeune: Un gentil amoureux
DR11 -2.41 dB -16.09 dB 3:04 09-Praetorius: Terpsichore, Musarum Aoniarum: Pavane de Spaigne, TMA 30
DR11 -2.02 dB -16.17 dB 2:16 10-Praetorius: Terpsichore, Musarum Aoniarum: Ballet des Amazones, TMA 270
DR11 -1.40 dB -16.85 dB 3:01 11-Arbeau: Pavan: Belle qui tiens ma vie
DR11 -2.69 dB -16.84 dB 2:10 12-Praetorius: Terpsichore, Musarum Aoniarum: Gaillarde, TMA 287
DR12 -1.66 dB -17.94 dB 4:24 13-Chardavoine: Le recueil des plus belles et excellentes chansons: Une Jeune Fillette
DR11 -1.46 dB -14.22 dB 2:40 14-Praetorius: Terpsichore, Musarum Aoniarum: Ballet des Coqs, TMA 254
DR12 -1.90 dB -16.76 dB 2:00 15-Praetorius: Terpsichore, Musarum Aoniarum: Ballet des Matelotz, TMA 280
DR11 -0.47 dB -16.05 dB 3:34 16-Praetorius: Terpsichore, Musarum Aoniarum: Passameze, TMA 283
DR13 -1.67 dB -17.66 dB 2:22 17-Roy: Si j'aime ou non, j'en dis rien
DR12 -0.71 dB -16.30 dB 3:34 18-Janequin: 19 chansons nouvelles a quatre parties, Livre 8, No. 4: Il estoit une fillette
DR12 -3.11 dB -17.34 dB 2:16 19-Praetorius: Terpsichore, Musarum Aoniarum: Volte, TMA 201
DR11 -2.47 dB -17.45 dB 2:33 20-Praetorius: Terpsichore, Musarum Aoniarum: Volte, TMA 210
DR12 -0.37 dB -15.55 dB 2:24 21-Chardavoine, Praetorius: Branles et Les Gavottes, TMA 1: Gavottes 1-3 / Le receuil des plus belles et excellentes chansons: Vostre esprit recréatif
––––––––––––––––––––––––––––––––––––––––

Number of tracks: 21
Official DR value: DR12

Samplerate: 48000 Hz
Channels: 2
Bits per sample: 24
Bitrate: 1498 kbps
Codec: FLAC
================================================================================


Thanks to the Original customer!