Carmela Visone and the Grooves - Inner Fight (2020) [Official Digital Download]

Posted By: El Misha
Carmela Visone and the Grooves - Inner Fight (2020) [Official Digital Download]

Carmela Visone and the Grooves - Inner Fight (2020)
FLAC (tracks) 24-bit/48 kHz | Time - 26:01 | 312 MB
Studio Master, Official Digital Download | Artwork: Front cover

Carmela Visone is immersed in a fantastic professional project and personal challenge, the recording of her first studio record Carmela Visone & The Grooves. The album fuses jazz and blues roots, neo soul and R&B with Carmela´s personal touch, creating a musical mix splashed by english, french, Portuguese and Neapolitan versions. This debut album is full of emotionalism and a selection of some of the songs which have been part of the artist's life.



Tracklist:

01. Able to Fly (4:14)
02. Created (3:56)
03. Innerfight (4:51)
04. Just Wanna Live It (3:40)
05. Life Goes By (2:01)
06. No Sense Anymore (4:01)
07. Not by Chance (3:18)

foobar2000 1.4 / Dynamic Range Meter 1.1.1
log date: 2020-12-18 07:32:43

––––––––––––––––––––––––––––––––––––––––
Analyzed: Carmela Visone and the Grooves / Inner Fight
––––––––––––––––––––––––––––––––––––––––

DR Peak RMS Duration Track
––––––––––––––––––––––––––––––––––––––––
DR7 -0.09 dB -9.25 dB 4:15 01-Able to Fly
DR8 -0.07 dB -9.15 dB 3:57 02-Created
DR8 -0.09 dB -10.04 dB 4:51 03-Innerfight
DR8 -0.10 dB -10.15 dB 3:41 04-Just Wanna Live It
DR12 -0.05 dB -13.54 dB 2:02 05-Life Goes By
DR6 -0.06 dB -7.90 dB 4:02 06-No Sense Anymore
DR7 -0.10 dB -9.14 dB 3:19 07-Not by Chance
––––––––––––––––––––––––––––––––––––––––

Number of tracks: 7
Official DR value: DR8

Samplerate: 48000 Hz
Channels: 2
Bits per sample: 24
Bitrate: 1683 kbps
Codec: FLAC
================================================================================



Thanks to the Original customer!