Tags
Language
Tags

Cody Carnes - Run To The Father (Deluxe) (2021) [Official Digital Download]

Posted By: El Misha
Cody Carnes - Run To The Father (Deluxe) (2021) [Official Digital Download]

Cody Carnes - Run To The Father (Deluxe) (2021)
FLAC (tracks) 24-bit/44.10 kHz | Time - 01:55:00 | 1.26 GB
Studio Master, Official Digital Download | Artwork: Front cover

Worship leader, songwriter and Christian music artist Cody Carnes has released his new studio album, Run To The Father, which features popular worship songs “Nothing Else,” “Christ Be Magnified,” and the title track “Run To The Father.”

For the Run To The Father album, Carnes teamed up with a group of powerful songwriters such as Matt Maher, Ran Jackson, Cory Asbury, Ethan Hulse, Steffany Gretzinger, Stefan Cashwell, and Passions’ Kristian Stanfill and Brett Younker.

This deluxe edition features several new live versions of the album's original tracks!

“I pray these songs draw people into deep encounters with Jesus. I hope people know God is madly in love with them and wants to be in close intimate relationship with them. I pray it leads the church into new life, fresh fire, deep repentance that produces a church who worships in Spirit and Truth.”



Tracklist:

01 - Run To The Father
02 - Christ Be Magnified
03 - Nothing Else
04 - Let The Light In
05 - Power In The Blood
06 - All My Delight
07 - Death Of Death
08 - Heaven Fall
09 - The Vow
10 - Christ Be Magnified (Live At Passion 2020)
11 - Let The Light In (Live At Worship Together 2020)
12 - Nothing Else (Live From Passion 2019)
13 - Run To The Father (Live From Motion Conference)
14 - The Blessing (Live From Home)
15 - Power In The Blood (Live From Home)
16 - Run To The Father (Live From Home)
17 - Christ Be Magnified (Live From Home)
18 - Run To The Father (Radio Version)

foobar2000 1.4 / Dynamic Range Meter 1.1.1
log date: 2021-02-06 08:33:53

––––––––––––––––––––––––––––––––––––––––
Analyzed: Cody Carnes / Run To The Father
––––––––––––––––––––––––––––––––––––––––

DR Peak RMS Duration Track
––––––––––––––––––––––––––––––––––––––––
DR5 -0.57 dB -8.58 dB 5:08 01-Run To The Father
DR6 -0.60 dB -9.06 dB 5:02 02-Christ Be Magnified
DR8 -0.59 dB -13.96 dB 6:33 03-Nothing Else
DR6 -0.60 dB -10.35 dB 5:50 04-Let The Light In
DR6 -0.60 dB -9.12 dB 5:59 05-Power In The Blood
DR6 -0.60 dB -8.52 dB 3:57 06-All My Delight
DR6 -0.59 dB -9.69 dB 5:08 07-Death Of Death
DR6 -0.41 dB -9.57 dB 5:04 08-Heaven Fall
DR7 -0.60 dB -12.41 dB 5:53 09-The Vow
DR6 -0.20 dB -7.85 dB 6:09 10-Christ Be Magnified (Live At Passion 2020)
DR6 -0.21 dB -8.27 dB 8:44 11-Let The Light In (Live At Worship Together 2020)
DR8 -0.50 dB -12.46 dB 8:21 12-Nothing Else (Live From Passion 2019)
DR7 -0.50 dB -10.21 dB 9:21 13-Run To The Father (Live From Motion Conference)
DR7 -0.20 dB -10.53 dB 8:31 14-The Blessing (Live From Home)
DR7 -0.20 dB -9.54 dB 6:48 15-Power In The Blood (Live From Home)
DR7 -0.20 dB -10.23 dB 6:59 16-Run To The Father (Live From Home)
DR7 -0.20 dB -9.73 dB 7:20 17-Christ Be Magnified (Live From Home)
DR6 -0.49 dB -9.46 dB 4:21 18-Run To The Father (Radio Version)
––––––––––––––––––––––––––––––––––––––––

Number of tracks: 18
Official DR value: DR7

Samplerate: 44100 Hz
Channels: 2
Bits per sample: 24
Bitrate: 1593 kbps
Codec: FLAC
================================================================================



Thanks to the Original customer!