Tags
Language
Tags

Charlie Daniels - Duets (2021) [Official Digital Download]

Posted By: delpotro
Charlie Daniels - Duets (2021) [Official Digital Download]

Charlie Daniels - Duets (2021)
FLAC (tracks) 24-bit/44,1 kHz | Front Cover | Time - 71:13 minutes | 853 MB
Country Rock | Label: Blue Hat Records, Official Digital Download

The nineteen-track compilation features Daniels singing and pickin’ with a slew of top-notch stars including Dolly Parton, Brooks & Dunn, Darius Rucker, Travis Tritt, Vince Gill, Brad Paisley, Brenda Lee, Gretchen Wilson, Marty Stuart, and more.

The album includes several of Daniels’ biggest songs such as “Long Haired Country Boy” (w/ Brooks & Dunn, as well as an additional version w/ Hal Ketchum and John Berry), “The South’s Gonna Do It (Again)” (w/ Keith Urban on guitar), “Drinkin’ My Baby Goodbye” (w/ Montgomery Gentry), and “Waco” (w/ Garth Brooks singing harmony), as well as classic tunes like “Jackson” (w/ Gretchen Wilson), “Let It Be Me” (w/ Brenda Lee), and “The Night They Drove Old Dixie Down” (w/ Vince Gill).

“The process of putting this project together was a wonderful time of reflection and it became an overwhelming reminder of how great these tracks are,” explains Blue Hat Records president and Daniels’ longtime manager David Corlew. “The best of the best joined Charlie in sharing musical styles and great songs. Thanks to all who participated in honoring Charlie.”

Tracklist:
01. What'd I Say
02. Signed Sealed Delivered I'm Yours
03. Jackson
04. The Night They Drove Old Dixie Down
05. Maggie's Farm
06. Daddy's Old Fiddle
07. Like a Rolling Stone
08. Evangeline
09. Let It Be Me
10. Long Haired Country Boy
11. God Save Us All from Religion
12. Drinkin' My Baby Goodbye
13. Jammin' for Stevie
14. The South's Gonna Do It (Again) (Bonus Track)
15. Texas (Bonus Track)
16. Southern Boy (Bonus Track)
17. Long Haired Country Boy (Bonus Track)

foobar2000 1.4.1 / Dynamic Range Meter 1.1.1
log date: 2021-07-16 11:34:03

––––––––––––––––––––––––––––––––––––––––
Analyzed: Charlie Daniels / Duets
––––––––––––––––––––––––––––––––––––––––

DR Peak RMS Duration Track
––––––––––––––––––––––––––––––––––––––––
DR7 -0.34 dB -9.40 dB 4:15 01-What'd I Say
DR8 0.00 dB -9.71 dB 4:06 02-Signed Sealed Delivered I'm Yours
DR10 -0.23 dB -11.82 dB 4:23 03-Jackson
DR7 -0.25 dB -9.56 dB 4:01 04-The Night They Drove Old Dixie Down
DR9 -0.26 dB -10.34 dB 3:50 05-Maggie's Farm
DR8 -0.29 dB -10.67 dB 3:51 06-Daddy's Old Fiddle
DR8 -0.23 dB -9.14 dB 5:00 07-Like a Rolling Stone
DR9 -0.28 dB -11.20 dB 3:37 08-Evangeline
DR10 -0.33 dB -12.26 dB 4:00 09-Let It Be Me
DR8 -0.27 dB -9.44 dB 4:20 10-Long Haired Country Boy
DR8 -0.24 dB -11.17 dB 3:51 11-God Save Us All from Religion
DR8 -0.29 dB -9.63 dB 3:43 12-Drinkin' My Baby Goodbye
DR8 -1.29 dB -10.61 dB 6:05 13-Jammin' for Stevie
DR8 -1.29 dB -10.61 dB 6:05 14-The South's Gonna Do It (Again) (Bonus Track)
DR10 0.00 dB -11.64 dB 3:04 15-Texas (Bonus Track)
DR9 -0.60 dB -11.44 dB 2:57 16-Southern Boy (Bonus Track)
DR9 -0.08 dB -10.23 dB 4:03 17-Long Haired Country Boy (Bonus Track)
––––––––––––––––––––––––––––––––––––––––

Number of tracks: 17
Official DR value: DR8

Samplerate: 44100 Hz
Channels: 2
Bits per sample: 24
Bitrate: 1689 kbps
Codec: FLAC
================================================================================


Thanks to the Original customer!