Tags
Language
Tags

Chick Corea & Makoto Ozone - Resonance (2022) [Official Digital Download 24/96]

Posted By: delpotro
Chick Corea & Makoto Ozone - Resonance (2022) [Official Digital Download 24/96]

Chick Corea & Makoto Ozone - Resonance (2022)
FLAC (tracks) 24-bit/96 kHz | Front Cover | Time - 95:33 minutes | 1,58 GB
Jazz | Label: Universal Music, Official Digital Download

A piano duo album by jazz great Chick Corea, who passed away suddenly on February 9, 2021, and Makoto Ozone, who continues to be active on the world stage.

Chick Corea and Makoto Ozone first met in 1982, when Ozone was still a student at Berklee College of Music. Chick Corea and Makoto Ozone first met in 1982, when Ozone was still a student at Berklee College of Music, and have been friends ever since. In May 2016, more than 30 years after their first encounter, the two pianists embarked on a two-piano concert tour of 11 concerts in Japan. In May 2016, the two pianos toured 11 concerts in Japan, and the best takes from the acclaimed performances were carefully selected for this album.

Although the album was planned before Chick's death and the songs had already been selected between the two of them, due to Chick's sudden death, it was completed by Kosone and Bernie Kirsch, a recording engineer who has worked on many of Chick's famous albums.

The album features original compositions by both musicians (including numbers written for the duo tour), co-written compositions ("Koto Ria," a word coined by combining "Koto" for "true" and "Ria" for "Korea"), classical and standard numbers, and fully improvised pieces. The album includes classical and standard numbers as well as fully improvised performances. The two musicians, who have been friends for many years, have vacuum-packed their heart-to-heart interplay onto two albums.

Chick was planning to tour Japan in the fall of 2021 to celebrate his 80th birthday, but due to his sudden death, a memorial concert called "Tribute to Chick Corea" will be held by Makoto Ozone, Hiromi Uehara and others.

Tracklist:
01. Introduction (Live At Hyogo Performing Arts Center KOBELCO, Hyogo / May 22, 2016)
02. Improvisation I (Live At Hyogo Performing Arts Center KOBELCO, Hyogo / May 22, 2016)
03. Snapshot (Live At Suntory Hall, Tokyo / May 19, 2016)
04. Spanish Song (Live At Suntory Hall, Tokyo / May 19, 2016)
05. Someone To Watch Over Me (Live At Hyogo Performing Arts Center KOBELCO, Hyogo / May 22, 2016)
06. Children’s Song No. 20 (Live At Hyogo Performing Arts Center KOBELCO, Hyogo / May 22, 2016)
07. Improvisation II: Part 1 (Live At Fukuoka Symphony Hall, Fukuoka / May 29, 2016)
08. Improvisation II: Part 2 "Fukuoka Blues" (Live At Fukuoka Symphony Hall, Fukuoka / May 29, 2016)
09. Koto-Rea (Live At Fukuoka Symphony Hall, Fukuoka / May 29, 2016)
10. Bartók: Seven Pieces From Mikrokosmos: No.123 Short Canon And Its Inversion (Live At Fukuoka Symphony Hall, Fukuoka / May 29, 2016)
11. Fantasy For Two Pianos (Live At Hyogo Performing Arts Center KOBELCO, Hyogo / May 22, 2016)

foobar2000 1.4.1 / Dynamic Range Meter 1.1.1
log date: 2022-02-09 16:59:35

––––––––––––––––––––––––––––––––––––––––
Analyzed: Chick Corea & Makoto Ozone / Resonance
––––––––––––––––––––––––––––––––––––––––

DR Peak RMS Duration Track
––––––––––––––––––––––––––––––––––––––––
DR12 -7.73 dB -24.12 dB 1:32 01-Introduction (Live At Hyogo Performing Arts Center KOBELCO, Hyogo / May 22, 2016)
DR15 -3.77 dB -24.58 dB 12:44 02-Improvisation I (Live At Hyogo Performing Arts Center KOBELCO, Hyogo / May 22, 2016)
DR14 -0.36 dB -18.44 dB 8:52 03-Snapshot (Live At Suntory Hall, Tokyo / May 19, 2016)
DR16 -0.20 dB -20.18 dB 9:04 04-Spanish Song (Live At Suntory Hall, Tokyo / May 19, 2016)
DR15 -4.41 dB -24.72 dB 9:58 05-Someone To Watch Over Me (Live At Hyogo Performing Arts Center KOBELCO, Hyogo / May 22, 2016)
DR16 -3.33 dB -23.51 dB 5:35 06-Children’s Song No. 20 (Live At Hyogo Performing Arts Center KOBELCO, Hyogo / May 22, 2016)
DR15 -2.27 dB -23.13 dB 10:51 07-Improvisation II: Part 1 (Live At Fukuoka Symphony Hall, Fukuoka / May 29, 2016)
DR15 -2.36 dB -21.01 dB 6:20 08-Improvisation II: Part 2 "Fukuoka Blues" (Live At Fukuoka Symphony Hall, Fukuoka / May 29, 2016)
DR16 -1.95 dB -23.17 dB 5:59 09-Koto-Rea (Live At Fukuoka Symphony Hall, Fukuoka / May 29, 2016)
DR15 -2.57 dB -21.74 dB 6:26 10-Bartók: Seven Pieces From Mikrokosmos: No.123 Short Canon And Its Inversion (Live At Fukuoka Symphony Hall, Fukuoka / May 29, 2016)
DR14 -3.28 dB -21.71 dB 18:14 11-Fantasy For Two Pianos (Live At Hyogo Performing Arts Center KOBELCO, Hyogo / May 22, 2016)
––––––––––––––––––––––––––––––––––––––––

Number of tracks: 11
Official DR value: DR15

Samplerate: 96000 Hz
Channels: 2
Bits per sample: 24
Bitrate: 2390 kbps
Codec: FLAC
================================================================================


Thanks to the Original customer!