Chie Ayado - SACD Collection (2003-2007) PS3 ISO + Hi-Res FLAC

Posted By: HDAtall
Chie Ayado - SACD Collection (2003-2007) PS3 ISO + Hi-Res FLAC

Chie Ayado - SACD Collection (2003-2007)
PS3 Rip | 5x SACD ISO | DSD64 2.0 (& some DST64 5.1) > 1-bit/2.8224 MHz | 267:38 min | Basic covers | 9,45 GB
or FLAC Stereo (converted with foobar2000 to tracks) 24bit/88,2 kHz | Basic covers included | ~ 5,28 GB

As this is the case with many international stars, Chie Ayado is not a household name in America. In her native Japan, she's a superstar jazz performer with more than 10 millions of recordings sold. She's so in demand, she continues to play over forty large-venue concerts a year. Her label, East House Records, is making a name for itself with Three Blind Mice-style analog recordings of unbelievable accuracy and dimension. Vocals are listening-room immediate and the piano is detailed, full and beautifully balanced. Very little processing is used, so you hear Ayado's unique vocal and piano playing without all the sonic distractions hiding many modern digital recordings.


Chie Ayado - SACD Collection (2003-2007) PS3 ISO + Hi-Res FLAC

Chie Ayado - Shine (2003)
PS3 Rip | SACD ISO | DSD64 2.0 & DST64 5.1* > 1-bit/2.8224 MHz | 53:04 min | 2,27 GB
or FLAC Stereo (converted with foobar2000 to tracks) 24bit/88,2 kHz | 1,07 GB

Tracklist:

01. Ooh Child [+ MCH 5.1]*
02. Feel Like Makin' Love [+ MCH 5.1]*
03. Ain't No Sunshine / Lean On Me
04. A Whiter Shade Of Pale
05. Yellow Moon
06. The House Of The Rising Sun
07. Goodbye Pork Pie Hat
08. Don't Let Me Be Lonely Tonight
09. All Blues
10. You Are So Beautiful

foobar2000 1.3.14 / Dynamic Range Meter 1.1.1

––––––––––––––––––––––––––––––––––––––––
Analyzed: Chie Ayado / Shine
––––––––––––––––––––––––––––––––––––––––

DR Peak RMS Duration Track
––––––––––––––––––––––––––––––––––––––––
DR15 -2.42 dB -21.88 dB 5:07 01-Ooh Child
DR13 -2.52 dB -21.24 dB 7:00 02-Feel Like Makin' Love
––––––––––––––––––––––––––––––––––––––––

Number of tracks: 2
Official DR value: DR14

Samplerate: 2822400 Hz / PCM Samplerate: 88200 Hz
Channels: 6
Bits per sample: 1
Bitrate: 16934 kbps
Codec: DST64
================================================================================

––––––––––––––––––––––––––––––––––––––––
Analyzed: Chie Ayado / Shine
––––––––––––––––––––––––––––––––––––––––

DR Peak RMS Duration Track
––––––––––––––––––––––––––––––––––––––––
DR10 -4.32 dB -16.29 dB 3:53 01-Ooh Child
DR9 -3.98 dB -15.28 dB 5:49 02-Feel Like Makin' Love
DR10 -4.23 dB -16.21 dB 5:07 03-Ain't No Sunshine - Lean On Me
DR11 -4.36 dB -19.12 dB 6:02 04-A Whiter Shade Of Pale
DR10 -3.88 dB -15.44 dB 4:13 05-Yellow Moon
DR10 -4.31 dB -17.53 dB 5:59 06-The House Of The Rising Sun
DR11 -4.40 dB -17.65 dB 6:01 07-Goodbye Pork Pie Hat
DR11 -4.39 dB -17.30 dB 4:00 08-Don't Let Me Be Lonely Tonight
DR12 -4.39 dB -18.35 dB 5:00 09-All Blues
DR9 -4.30 dB -16.61 dB 7:00 10-You Are So Beautiful
––––––––––––––––––––––––––––––––––––––––

Number of tracks: 10
Official DR value: DR10

Samplerate: 2822400 Hz / PCM Samplerate: 88200 Hz
Channels: 2
Bits per sample: 1
Bitrate: 5645 kbps
Codec: DSD64


Uncompressed SACD ISO size > 2,7 GB

Chie Ayado - SACD Collection (2003-2007) PS3 ISO + Hi-Res FLAC

Chie Ayado - To You (2003)
PS3 Rip | SACD ISO | DSD64 2.0 > 1-bit/2.8224 MHz | 52:23 minutes | 1,58 GB
or FLAC Stereo (converted with foobar2000 to tracks) 24bit/88,2 kHz | 1,03 GB

Tracklist:

01. A House Of Gold
02. I Got A Name
03. Imagine
04. God Bless' The Child
05. With A Little Help From My Friends
06. Without you
07. On And On
08. The River Of No Return
09. Never My Love
10. Fly Me To The Moon
11. Lucille
12. My Dear Life
13. Oh My Darling Clementine
14. My Way

foobar2000 1.3.14 / Dynamic Range Meter 1.1.1

––––––––––––––––––––––––––––––––––––––––
Analyzed: Chie Ayado / to you
––––––––––––––––––––––––––––––––––––––––

DR Peak RMS Duration Track
––––––––––––––––––––––––––––––––––––––––
DR11 -4.89 dB -22.06 dB 3:05 01-A House Of Gold
DR11 -4.36 dB -19.69 dB 3:49 02-I Got A Name
DR13 -4.40 dB -22.15 dB 4:30 03-Imagine
DR13 -4.42 dB -21.67 dB 4:22 04-God Bless' The Child
DR14 -4.90 dB -23.34 dB 5:37 05-With A Little Help From My Friends
DR10 -4.41 dB -20.75 dB 3:23 06-Without you
DR12 -4.96 dB -20.68 dB 3:18 07-On And On
DR13 -5.83 dB -24.75 dB 3:22 08-The River Of No Return
DR13 -4.61 dB -22.90 dB 4:06 09-Never My Love
DR14 -4.45 dB -22.42 dB 3:24 10-Fly Me To The Moon
DR16 -5.32 dB -27.62 dB 2:38 11-Lucille
DR13 -5.68 dB -24.74 dB 2:32 12-My Dear Life
DR14 -4.99 dB -27.32 dB 2:03 13-Oh My Darling Clementine
DR13 -4.40 dB -22.90 dB 6:15 14-My Way
––––––––––––––––––––––––––––––––––––––––

Number of tracks: 14
Official DR value: DR13

Samplerate: 2822400 Hz / PCM Samplerate: 88200 Hz
Channels: 2
Bits per sample: 1
Bitrate: 5645 kbps
Codec: DSD64


Uncompressed SACD ISO size > 2,12 GB

Chie Ayado - SACD Collection (2003-2007) PS3 ISO + Hi-Res FLAC

Chie Ayado - Seven (2004)
PS3 Rip | SACD ISO | DSD64 2.0 > 1-bit/2.8224 MHz | 51:55 minutes | 1,57 GB
or FLAC Stereo (converted with foobar2000 to tracks) 24bit/88,2 kHz | 1,01 GB

Tracklist:

01. Born To Be Wild
02. I Can't Stop Loving You
03. Tennessee Waltz
04. Do It Again
05. My Dear Life
06. Was Ich Dir Sagen Will
07. Desperado
08. When The Saints Go Marching In
09. I Fall In Love Too Easily
10. Trouble In Mind
11. Angie

foobar2000 1.3.14 / Dynamic Range Meter 1.1.1

––––––––––––––––––––––––––––––––––––––––
Analyzed: Chie Ayado / SEVEN
––––––––––––––––––––––––––––––––––––––––

DR Peak RMS Duration Track
––––––––––––––––––––––––––––––––––––––––
DR13 -4.26 dB -18.70 dB 4:03 01-Born To Be Wild
DR12 -4.42 dB -19.02 dB 3:47 02-I Can't Stop Loving You
DR13 -6.27 dB -24.04 dB 4:11 03-Tennessee Waltz
DR12 -4.05 dB -18.62 dB 4:13 04-Do It Again
DR12 -4.29 dB -21.22 dB 5:28 05-My Dear Life
DR14 -4.72 dB -23.68 dB 6:15 06-Was Ich Dir Sagen Will
DR15 -4.42 dB -21.49 dB 4:50 07-Desperado
DR12 -4.26 dB -18.21 dB 4:16 08-When The Saints Go Marching In
DR14 -7.18 dB -25.39 dB 5:20 09-I Fall In Love Too Easily
DR12 -4.46 dB -19.93 dB 4:34 10-Trouble In Mind
DR15 -5.75 dB -26.88 dB 4:59 11-Angie
––––––––––––––––––––––––––––––––––––––––

Number of tracks: 11
Official DR value: DR13

Samplerate: 2822400 Hz / PCM Samplerate: 88200 Hz
Channels: 2
Bits per sample: 1
Bitrate: 5645 kbps
Codec: DSD64


Uncompressed SACD ISO size > 2,09 GB

Chie Ayado - SACD Collection (2003-2007) PS3 ISO + Hi-Res FLAC

Chie Ayado - Time (2004)
PS3 Rip | SACD ISO | DSD64 2.0 & DST64 5.1* > 1-bit/2.8224 MHz | 49:44 min | 2,22 GB
or FLAC Stereo (converted with foobar2000 to tracks) 24bit/88,2 kHz | 1,02 GB

Tracklist:

01. Trav'lin' Light [+ MCH 5.1]*
02. What A Difference A Day Made [+ MCH 5.1]*
03. Lover Man [+ MCH 5.1]*
04. A Time For Love
05. Gee Baby,Ain't I Good To You
06. Fools Rush In
07. Solitude
08. Don't Be Cruel
09. Someday We'll Be Together
10. Georgia On My Mind
11. Blowin' In The Wind

foobar2000 1.3.14 / Dynamic Range Meter 1.1.1

––––––––––––––––––––––––––––––––––––––––
Analyzed: Chie Ayado / TIME
––––––––––––––––––––––––––––––––––––––––

DR Peak RMS Duration Track
––––––––––––––––––––––––––––––––––––––––
DR11 -5.03 dB -25.43 dB 4:36 01-Trav'lin' Light
DR13 -2.50 dB -22.66 dB 3:06 02-What A Difference A Day Made
DR14 -4.83 dB -27.36 dB 7:07 03-Lover Man
––––––––––––––––––––––––––––––––––––––––

Number of tracks: 3
Official DR value: DR13

Samplerate: 2822400 Hz / PCM Samplerate: 88200 Hz
Channels: 6
Bits per sample: 1
Bitrate: 16934 kbps
Codec: DST64
================================================================================

––––––––––––––––––––––––––––––––––––––––
Analyzed: Chie Ayado / TIME
––––––––––––––––––––––––––––––––––––––––

DR Peak RMS Duration Track
––––––––––––––––––––––––––––––––––––––––
DR14 -6.24 dB -22.50 dB 5:04 01-Trav'lin' Light
DR12 -2.50 dB -17.80 dB 4:08 02-What A Difference A Day Made
DR13 -4.93 dB -20.51 dB 5:31 03-Lover Man
DR13 -5.62 dB -22.70 dB 4:34 04-A Time For Love
DR13 -2.30 dB -18.13 dB 3:06 05-Gee Baby,Ain't I Good To You
DR12 -5.39 dB -20.41 dB 5:09 06-Fools Rush In
DR15 -4.38 dB -25.32 dB 4:58 07-Solitude
DR13 -3.52 dB -19.20 dB 2:31 08-Don't Be Cruel
DR13 -3.64 dB -18.78 dB 3:38 09-Someday We'll Be Together
DR14 -3.59 dB -19.95 dB 3:57 10-Georgia On My Mind
DR13 -6.01 dB -23.56 dB 7:09 11-Blowin' In The Wind
––––––––––––––––––––––––––––––––––––––––

Number of tracks: 11
Official DR value: DR13

Samplerate: 2822400 Hz / PCM Samplerate: 88200 Hz
Channels: 2
Bits per sample: 1
Bitrate: 5645 kbps
Codec: DSD64


Uncompressed SACD ISO size > 2,68 GB

Chie Ayado - SACD Collection (2003-2007) PS3 ISO + Hi-Res FLAC

Chie Ayado - Fifty (2007)
PS3 Rip | SACD ISO | DSD64 2.0 > 1-bit/2.8224 MHz | 60:32 minutes | 1,83 GB
or FLAC Stereo (converted with foobar2000 to tracks) 24bit/88,2 kHz | 1,13 GB

Tracklist:

01. If You Love Me (Really Love Me)
02. Always On My Mind
03. Feelings
04. Will You Still Love Me Tomorrow
05. C'est Si Bon
06. Race To The End
07. If You Go Away
08. What Now My Love
09. Greensleeves
10. Try To Remember
11. Swanee
12. Solitaire
13. To Love Somebody
14. Heartbreak Hotel
15. The Green Leaves Of Summer
16. Come In From The Rain
17. Going Home

foobar2000 1.3.14 / Dynamic Range Meter 1.1.1

––––––––––––––––––––––––––––––––––––––––
Analyzed: CHIE AYADO / fifty
––––––––––––––––––––––––––––––––––––––––

DR Peak RMS Duration Track
––––––––––––––––––––––––––––––––––––––––
DR14 -4.45 dB -23.15 dB 3:34 01-If You Love Me (Really Love Me)
DR13 -4.44 dB -20.57 dB 3:09 02-Always On My Mind
DR13 -5.87 dB -25.03 dB 3:49 03-Feelings
DR13 -4.45 dB -22.01 dB 6:04 04-Will You Still Love Me Tomorrow
DR11 -4.39 dB -19.50 dB 3:10 05-C'est Si Bon
DR11 -4.31 dB -19.71 dB 2:41 06-Race To The End
DR12 -4.44 dB -21.63 dB 3:27 07-If You Go Away
DR12 -4.30 dB -20.22 dB 3:38 08-What Now My Love
DR13 -8.13 dB -25.57 dB 2:15 09-Greensleeves
DR14 -4.44 dB -22.95 dB 5:22 10-Try To Remember
DR11 -4.42 dB -18.96 dB 3:11 11-Swanee
DR13 -4.39 dB -23.02 dB 4:51 12-Solitaire
DR13 -4.13 dB -22.15 dB 3:28 13-To Love Somebody
DR13 -4.75 dB -21.60 dB 2:27 14-Heartbreak Hotel
DR12 -4.46 dB -21.03 dB 2:49 15-The Green Leaves Of Summer
DR11 -4.45 dB -20.10 dB 3:48 16-Come In From The Rain
DR14 -5.40 dB -25.49 dB 2:48 17-Going Home
––––––––––––––––––––––––––––––––––––––––

Number of tracks: 17
Official DR value: DR13

Samplerate: 2822400 Hz / PCM Samplerate: 88200 Hz
Channels: 2
Bits per sample: 1
Bitrate: 5645 kbps
Codec: DSD64


Uncompressed SACD ISO size > 2,44 GB
–––––
Thanks to the Original rippers!
>