Tags
Language
Tags

Chœur de Chambre de Namur & Thibaut Lenaerts - Franck: De l'autel au salon. Œuvres chorales (2021) [Digital Download 24/96]

Posted By: delpotro
Chœur de Chambre de Namur & Thibaut Lenaerts - Franck: De l'autel au salon. Œuvres chorales (2021) [Digital Download 24/96]

Chœur de Chambre de Namur & Thibaut Lenaerts - Franck: De l'autel au salon. Œuvres chorales (2021)
FLAC (tracks) 24-bit/96 kHz | Front Cover | Time - 76:26 minutes | 1,33 GB
Classical, Vocal | Label: Musique en Wallonie, Official Digital Download

“Vox humana” or “Vox celestis”? For César Franck (1822-1890) the one is often a metaphor for the other; whether in sacred or secular vein, spirituality is inherent in all his vocal music, even the most modest of his choral works. Certain of these form the focus of attention in this first recording. They remain unpublished; were they perhaps thought to be of lesser worth for having originated in a religious or private celebration or in response to a publisher’s commission? We should remember that it was often the specific circumstances that provided Franck with the stimulus necessary for the realization of some of his masterpieces. Be that as it may, listening to these choral works offers the listener some delightful discoveries.

Tracklist:
1. Thibaut Lenaerts, Chœur de Chambre de Namur, Gwendoline Blondeel, Pierre Derhet, Kamil Ben Hsaïn Lachiri, Edward Vanmarsenille & Eric Mathot – Domine Deus in simplicitate (03:59)
2. Thibaut Lenaerts, Chœur de Chambre de Namur & Edward Vanmarsenille – Litanies de la Sainte Vierge (01:55)
3. Thibaut Lenaerts, Chœur de Chambre de Namur, Samuel Namotte, Emmanuel Tondus & Edward Vanmarsenille – Tantum ergo (03:13)
4. Thibaut Lenaerts, Chœur de Chambre de Namur, Caroline Weynants, Caroline de Mahieu & Edward Vanmarsenille – Ô vous qu’elle a pris pour modèle (02:46)
5. Thibaut Lenaerts & Chœur de Chambre de Namur – Sous l’ombre fraîche des palmiers (05:05)
6. Thibaut Lenaerts & Chœur de Chambre de Namur – Nous marchions avant que l’aurore (03:51)
7. Edward Vanmarsenille & Philippe Riga – Andantino pour orgue (05:25)
8. Thibaut Lenaerts & Chœur de Chambre de Namur – En toi, mon Dieu, notre âme se confie (02:47)
9. Thibaut Lenaerts, Chœur de Chambre de Namur, Caroline Weynants & Edward Vanmarsenille – Salut jour vénéré (03:19)
10. Thibaut Lenaerts, Chœur de Chambre de Namur & Philippe Riga – Aux petits enfants (02:09)
11. Edward Vanmarsenille & Philippe Riga – Pizzicati et andante (02:05)
12. Thibaut Lenaerts, Chœur de Chambre de Namur & Philippe Riga – Les danses de Lormont (02:56)
13. Thibaut Lenaerts, Chœur de Chambre de Namur & Philippe Riga – Premier sourire de mai (02:08)
14. Thibaut Lenaerts, Chœur de Chambre de Namur, Maxime Melnik, Samuel Namotte, Edward Vanmarsenille, Hannelore Devaere & Eric Mathot – Quæ est ista (05:47)
15. Thibaut Lenaerts, Chœur de Chambre de Namur, Kamil Ben Hsaïn Lachiri, Edward Vanmarsenille & Eric Mathot – Quare fremuerunt gentes (04:47)
16. Thibaut Lenaerts, Chœur de Chambre de Namur & Philippe Riga – Source ineffable de lumière (03:45)
17. Thibaut Lenaerts, Pierre Derhet, Emmanuel Tondus, Hannelore Devaere & Edward Vanmarsenille – Panis Angelicus (03:47)
18. Thibaut Lenaerts, Chœur de Chambre de Namur, Caroline Weynants & Philippe Riga – Le garde d’honneur (03:10)
19. Thibaut Lenaerts, Chœur de Chambre de Namur, Edward Vanmarsenille & Eric Mathot – Domine non secundum (03:52)
20. Thibaut Lenaerts, Chœur de Chambre de Namur, Caroline Weynants, Pierre Derhet, Kamil Ben Hsaïn Lachiri, Edward Vanmarsenille & Eric Mathot – Dextera Domini (09:31)

foobar2000 1.4.1 / Dynamic Range Meter 1.1.1
log date: 2021-10-21 16:06:06

––––––––––––––––––––––––––––––––––––––––
Analyzed: Chœur de Chambre de Namur & Thibaut Lenaerts / Franck: De l'autel au salon. Œuvres chorales
––––––––––––––––––––––––––––––––––––––––

DR Peak RMS Duration Track
––––––––––––––––––––––––––––––––––––––––
DR10 -0.19 dB -14.50 dB 4:00 01-Franck: Domine Deus in simplicitate
DR13 -0.20 dB -18.84 dB 1:55 02-Franck: Litanies de la Sainte Vierge
DR12 -0.20 dB -20.07 dB 3:14 03-Franck: Tantum ergo
DR12 -0.19 dB -17.74 dB 2:47 04-Franck: Ô vous qu’elle a pris pour modèle
DR12 -0.19 dB -17.56 dB 5:05 05-Franck: Sous l’ombre fraîche des palmiers
DR12 -0.19 dB -16.77 dB 3:52 06-Franck: Nous marchions avant que l’aurore
DR12 -6.92 dB -23.32 dB 5:25 07-Franck: Andantino pour orgue
DR8 -0.19 dB -12.97 dB 2:48 08-Franck: En toi, mon Dieu, notre âme se confie
DR11 -0.19 dB -16.27 dB 3:19 09-Franck: Salut jour vénéré
DR16 -0.20 dB -20.96 dB 2:09 10-Franck: Aux petits enfants
DR17 -3.96 dB -24.67 dB 2:05 11-Franck: Pizzicati et andante
DR11 -0.19 dB -15.32 dB 2:56 12-Franck: Les danses de Lormont
DR10 -0.19 dB -15.09 dB 2:08 13-Franck: Premier sourire de mai
DR13 -0.19 dB -18.43 dB 5:48 14-Franck: Quæ est ista
DR12 -0.19 dB -17.18 dB 4:48 15-Franck: Quare fremuerunt gentes
DR12 -1.62 dB -19.17 dB 3:45 16-Franck: Source ineffable de lumière
DR13 -1.73 dB -19.22 dB 3:48 17-Franck: Panis Angelicus
DR14 -0.20 dB -19.49 dB 3:11 18-Franck: Le garde d’honneur
DR12 -0.19 dB -17.86 dB 3:52 19-Franck: Domine non secundum
DR8 -0.17 dB -13.24 dB 9:32 20-Franck: Dextera Domini
––––––––––––––––––––––––––––––––––––––––

Number of tracks: 20
Official DR value: DR12

Samplerate: 96000 Hz
Channels: 2
Bits per sample: 24
Bitrate: 2523 kbps
Codec: FLAC
================================================================================


Thanks to the Original customer!