Tags
Language
Tags

VA - Christmas Crooners (2014) [Official Digital Download 24/96]

Posted By: El Misha
VA - Christmas Crooners (2014) [Official Digital Download 24/96]

VA - Christmas Crooners (2014)
FLAC (tracks) 24-bit/96 kHz | Time - 53:43 | 492 MB
Studio Master, Official Digital Download | Artwork: Front cover

BnF Collection presents Christmas Crooners contains the defining tracks of the decade and features some of the biggest hits from artists including Dean Martin, Frank Sinatra, Elvis Presley and many more.



Tracklist:

01-Let It Snow! Let It Snow! Let It Snow!
02-The Christmas Song
03-Oh Little Town of Bethlehem
04-White Christmas
05-Winter Wonderland
06-Jingle Bells
07-Blue Christmas
08-My Christmas Prayer
09-I've Got My Love to Keep Me Warm
10-The Christmas Song
11-Silent Night
12-It's Christmas Everywhere
13-Rudolph the Red Nose Reindeer
14-I Believe
15-My First Christmas with You
16-Christmas in New-Orleans
17-I'll Be Home for Christmas
18-The Christmas Song
19-A Winter Romance
20-Silent Night

foobar2000 1.4 / Dynamic Range Meter 1.1.1
log date: 2021-12-23 08:49:47

––––––––––––––––––––––––––––––––––––––––
Analyzed: Jazz / Christmas Crooners (The Best Christmas Songs from Frank Sinatra to Elvis Presley)
––––––––––––––––––––––––––––––––––––––––

DR Peak RMS Duration Track
––––––––––––––––––––––––––––––––––––––––
DR14 -2.13 dB -18.99 dB 1:56 01-Let It Snow! Let It Snow! Let It Snow!
DR12 -1.76 dB -16.80 dB 3:25 02-The Christmas Song
DR11 -6.08 dB -19.49 dB 2:42 03-Oh Little Town of Bethlehem
DR12 -4.97 dB -19.87 dB 2:39 04-White Christmas
DR12 -6.19 dB -20.82 dB 2:40 05-Winter Wonderland
DR10 -4.36 dB -16.65 dB 1:59 06-Jingle Bells
DR11 -6.93 dB -19.83 dB 2:12 07-Blue Christmas
DR11 -6.43 dB -19.97 dB 3:00 08-My Christmas Prayer
DR14 -5.16 dB -21.10 dB 2:43 09-I've Got My Love to Keep Me Warm
DR11 -6.80 dB -20.35 dB 3:57 10-The Christmas Song
DR10 -3.81 dB -16.78 dB 2:25 11-Silent Night
DR11 -6.74 dB -19.79 dB 3:05 12-It's Christmas Everywhere
DR13 -3.03 dB -19.42 dB 2:25 13-Rudolph the Red Nose Reindeer
DR9 -5.65 dB -18.54 dB 2:10 14-I Believe
DR11 -7.13 dB -21.01 dB 2:10 15-My First Christmas with You
DR12 -4.62 dB -20.02 dB 2:54 16-Christmas in New-Orleans
DR11 -2.44 dB -16.78 dB 3:08 17-I'll Be Home for Christmas
DR10 -8.64 dB -21.08 dB 3:10 18-The Christmas Song
DR14 -3.51 dB -20.72 dB 2:57 19-A Winter Romance
DR11 -6.00 dB -20.59 dB 2:15 20-Silent Night
––––––––––––––––––––––––––––––––––––––––

Number of tracks: 20
Official DR value: DR11

Samplerate: 96000 Hz
Channels: 2
Bits per sample: 24
Bitrate: 1203 kbps
Codec: FLAC
================================================================================



Thanks to the Original customer!