Tags
Language
Tags

Claire Booth & Christopher Glynn - Mussorgsky: Unorthodox Music (2021) [Official Digital Download 24/96]

Posted By: delpotro
Claire Booth & Christopher Glynn - Mussorgsky: Unorthodox Music (2021) [Official Digital Download 24/96]

Claire Booth & Christopher Glynn - Mussorgsky: Unorthodox Music (2021)
FLAC (tracks) 24-bit/96 kHz | Front Cover & Digital Booklet | Time - 69:21 minutes | 1,12 GB
Classical, Vocal | Label: Avie Records, Official Digital Download

Soprano Claire Booth and pianist Christopher Glynn follow their critically acclaimed collaborations Percy Grainger: Folk Music and Edvard Grieg: Lyric Music with Modest Mussorgsky: Unorthodox Music, interspersing a selection of the Russian composer's under-represented songs with solo piano works.

First Percy Grainger: Folk Music, then Edvard Grieg: Lyric Music, and now Modest Mussorgsky: Unorthodox Music a logical sequence in soprano Claire Booth's and pianist Christopher Glynn's growing AVIE discography, interspersing a selection of under-represented songs with solo piano works by this most individual and idiosyncratic of all Russian composers.

Claire and Chris approach Modest Mussorgsky: Unorthodox Music in the spirit of a storyteller, tracing an arc of life from innocence to experience that is arranged across a prologue and four "scenes" Nursery, Youthful Years, Marriage and Loneliness taking their cue from the colourful tableaux of the composer's operas. Individual numbers from the great song cycles Youthful Years, Nursery, Sunless, and Songs and Dances of Death are juxtaposed with works from Mussorgsky's more unorthodox output, all delivered by Claire and Chris with disarming affect.

Tracklist:
1. Claire Booth – The Goat (A Society Tale) (02:30)
2. Christopher Glynn – Memories of Childhood: I. Nanny and I (01:15)
3. Claire Booth – The Nursery: I. With Nanny (01:47)
4. Claire Booth – The Nursery: II. In the Corner (01:38)
5. Christopher Glynn – Memories of Childhood: II. Nanny Locks Me in a Dark Cupboard (01:31)
6. Claire Booth – The Nursery: IV. With the Doll (01:56)
7. Claire Booth – The Nursery: VI. Hobby Horse (03:24)
8. Christopher Glynn – Porte-enseigne Polka (03:01)
9. Claire Booth – Desire (02:39)
10. Christopher Glynn – Impromptu-passionné (02:33)
11. Claire Booth – From my tears (01:41)
12. Christopher Glynn – Hopak of the Merry Young Ukrainians (01:51)
13. Claire Booth – Night (04:16)
14. Claire Booth – Hopak (03:11)
15. Claire Booth – Oh, How Your Eyes Look At Me Sometimes (02:36)
16. Claire Booth – Oh, You Drunken Sot! (03:01)
17. Christopher Glynn – Intermezzo in modo classico (03:33)
18. Claire Booth – Songs and Dances of Death: III. Trepak (05:02)
19. Christopher Glynn – Album Leaf: Méditation (04:17)
20. Claire Booth – The Leaves Rustled Softly (03:40)
21. Christopher Glynn – Pictures at an Exhibition: Cum Mortuis in Lingua Mortua (02:39)
22. Claire Booth – Sunless: I. Within Four Walls (01:33)
23. Claire Booth – Sunless: VI. On the River (04:21)
24. Christopher Glynn – Rêverie (05:13)

foobar2000 1.4.1 / Dynamic Range Meter 1.1.1
log date: 2021-10-15 08:45:21

––––––––––––––––––––––––––––––––––––––––
Analyzed: Claire Booth & Christopher Glynn / Mussorgsky: Unorthodox Music
––––––––––––––––––––––––––––––––––––––––

DR Peak RMS Duration Track
––––––––––––––––––––––––––––––––––––––––
DR13 -7.64 dB -25.65 dB 2:31 01-Mussorgsky: The Goat (A Society Tale)
DR12 -16.23 dB -31.60 dB 1:16 02-Mussorgsky: Memories of Childhood: I. Nanny and I
DR15 -2.96 dB -24.18 dB 1:48 03-Mussorgsky: The Nursery: I. With Nanny
DR14 -5.06 dB -25.22 dB 1:39 04-Mussorgsky: The Nursery: II. In the Corner
DR16 -3.51 dB -25.20 dB 1:32 05-Mussorgsky: Memories of Childhood: II. Nanny Locks Me in a Dark Cupboard
DR14 -6.64 dB -27.66 dB 1:57 06-Mussorgsky: The Nursery: IV. With the Doll
DR15 -3.75 dB -24.67 dB 3:24 07-Mussorgsky: The Nursery: VI. Hobby Horse
DR14 -6.87 dB -25.31 dB 3:02 08-Mussorgsky: Porte-enseigne Polka
DR13 -6.85 dB -25.18 dB 2:39 09-Mussorgsky: Desire
DR14 -11.89 dB -31.76 dB 2:34 10-Mussorgsky: Impromptu-passionné
DR13 -3.54 dB -22.92 dB 1:41 11-Mussorgsky: From my tears
DR13 -6.85 dB -24.25 dB 1:51 12-Mussorgsky: Hopak of the Merry Young Ukrainians
DR15 -2.43 dB -23.85 dB 4:16 13-Mussorgsky: Night
DR16 -0.37 dB -22.17 dB 3:11 14-Mussorgsky: Hopak
DR14 -4.42 dB -24.85 dB 2:37 15-Mussorgsky: Oh, How Your Eyes Look At Me Sometimes
DR15 -0.56 dB -22.15 dB 3:01 16-Mussorgsky: Oh, You Drunken Sot!
DR12 -6.45 dB -24.28 dB 3:34 17-Mussorgsky: Intermezzo in modo classico
DR17 -1.40 dB -25.34 dB 5:02 18-Mussorgsky: Songs and Dances of Death: III. Trepak
DR16 -9.09 dB -30.95 dB 4:17 19-Mussorgsky: Album Leaf: Méditation
DR11 -11.44 dB -28.05 dB 3:41 20-Mussorgsky: The Leaves Rustled Softly
DR12 -17.48 dB -36.00 dB 2:40 21-Mussorgsky: Pictures at an Exhibition: Cum Mortuis in Lingua Mortua
DR12 -8.33 dB -29.99 dB 1:33 22-Mussorgsky: Sunless: I. Within Four Walls
DR13 -6.63 dB -25.82 dB 4:22 23-Mussorgsky: Sunless: VI. On the River
DR13 -13.57 dB -33.02 dB 5:14 24-Mussorgsky: Rêverie
––––––––––––––––––––––––––––––––––––––––

Number of tracks: 24
Official DR value: DR14

Samplerate: 96000 Hz
Channels: 2
Bits per sample: 24
Bitrate: 2132 kbps
Codec: FLAC
================================================================================


Thanks to the Original customer!