Clara Luciani - Coeur (2021) [Official Digital Download]

Posted By: delpotro
Clara Luciani - Coeur (2021) [Official Digital Download]

Clara Luciani - Coeur (2021)
FLAC (tracks) 24-bit/44,1 kHz | Front Cover | Time - 37:17 minutes | 434 MB
Pop, Female Vocal | Label: Romance Musique, Official Digital Download

Clara Luciani already had an impressive track record by the time she released her 2018 debut solo album, Sainte-Victoire. Having sung in the groups La Femme, Nouvelle Vague, and Hologram, and collaborated with Raphaël, Alex Beaupain, and rapper Nekfeu, the French singer funneled all that experience into a solemn yet festive LP about overcoming heartbreak. She takes it up a notch on this unabashedly groovy second album, exhibiting an icy cool as she sings of love while taking over the dance floor. “Le reste” is a cheeky tune that bounces to an irresistible disco beat, with Luciani briefly lamenting the lost intimacy of a relationship that has ended, then shaking it off with a thrilling exuberance. “Everyone looks the same, except you,” she coos on “Tout le monde (sauf toi),” a languorously funky love song about standing out from the crowd. She picks up the thread on the somber guitar ballad “J'sais pas plaire,” confessing that she doesn't know how to flirt or charm like other girls, and that she longs for a man who will love her for who she is: “a little gauche and fragile,” she admits.

Tracklist:
1. Clara Luciani – Cœur (03:49)
2. Clara Luciani – Le reste (03:38)
3. Clara Luciani – Le chanteur (04:12)
4. Clara Luciani – Tout le monde (sauf toi) (02:46)
5. Clara Luciani – Respire encore (03:48)
6. Clara Luciani – Amour toujours (03:27)
7. Clara Luciani – J'sais pas plaire (03:04)
8. Clara Luciani & Julien Doré – Sad & slow (03:22)
9. Clara Luciani – La place (03:12)
10. Clara Luciani – Bandit (02:51)
11. Clara Luciani – Au revoir (03:04)

foobar2000 1.6 / Dynamic Range Meter 1.1.1
log date: 2021-06-10 21:14:48

––––––––––––––––––––––––––––––––––––––––
Analyzed: Clara Luciani / Cœur
––––––––––––––––––––––––––––––––––––––––

DR Peak RMS Duration Track
––––––––––––––––––––––––––––––––––––––––
DR6 -0.20 dB -7.20 dB 3:49 01-Cœur
DR6 -0.20 dB -7.61 dB 3:38 02-Le reste
DR6 -0.20 dB -7.87 dB 4:12 03-Le chanteur
DR6 -0.20 dB -6.79 dB 2:46 04-Tout le monde (sauf toi)
DR6 -0.20 dB -6.94 dB 3:49 05-Respire encore
DR7 -0.20 dB -7.60 dB 3:28 06-Amour toujours
DR10 -0.20 dB -12.82 dB 3:04 07-J'sais pas plaire
DR6 -0.20 dB -9.08 dB 3:22 08-Sad & slow
DR6 -0.20 dB -7.83 dB 3:13 09-La place
DR6 -0.20 dB -7.97 dB 2:52 10-Bandit
DR5 -0.20 dB -6.55 dB 3:04 11-Au revoir
––––––––––––––––––––––––––––––––––––––––

Number of tracks: 11
Official DR value: DR6

Samplerate: 44100 Hz
Channels: 2
Bits per sample: 24
Bitrate: 1584 kbps
Codec: FLAC
================================================================================


Thanks to the Original customer!