Tags
Language
Tags

Dave Brubeck Quartet - Dave Digs Disney (1957) [Japanese Reissue 2000] PS3 ISO + DSD64 + Hi-Res FLAC

Posted By: HDAtall
Dave Brubeck Quartet - Dave Digs Disney (1957) [Japanese Reissue 2000] PS3 ISO + DSD64 + Hi-Res FLAC

The Dave Brubeck Quartet - Dave Digs Disney (1957) [Japanese Reissue 2000]
PS3 Rip | SACD ISO | DSD64 2.0 > 1-bit/2.8224 MHz | 50:21 minutes | PDF booklet | 1,48 GB
or DSD64 2.0 Mono (from SACD-ISO to Tracks.dsf) > 1-bit/2.8224 MHz | PDF booklet | 1,46 GB
or FLAC Mono (carefully converted & encoded to tracks) 24bit/96 kHz | PDF booklet | 1004 MB

Inspired by an outing to Disneyland, Dave Brubeck performs eight classics, many of which were featured in Disney movies including Alice In Wonderland, Pinocchio, Snow White and Cinderella. Standouts include “Give A Little Whistle”, “Heigh-Ho”, “When You Wish Upon A Star” and “Some Day My Prince Will Come”. Dave Digs Disney received praise from publications including Q, All About Jazz and many more. This monumental recording features Paul Desmond, Norman Bates and Joe Morello.

This reissue contains the original LP of the same name plus two previously unissued songs ("Very Good Advice" and "So This Is Love"). Inspired by a trip with his family to Disneyland, Dave Brubeck recorded eight songs taken from four Disney movies (Alice in Wonderland, Pinocchio, Snow White and Cinderella), including such melodies as "Give a Little Whistle," "Heigh Ho," "When You Wish Upon a Star" and "Someday My Prince Will Come." The funny part is that all of these songs were already in the Brubeck Quartet's repertoire. The results are pleasing although, due to a misprint, the booklet only contains half of the original liner notes.

Tracklist:

01. Alice In Wonderland
02. Give A Little Whistle
03. Heigh-Ho
04. When You Wish Upon A Star
05. Someday My Prince Will Come
06. One Song
07. Very Good Advice
08. So This Is Love

Personnel
Dave Brubeck - piano
Paul Desmond - alto saxophone
Norman Bates - bass
Joe Morello - drums

foobar2000 1.6.5 / Dynamic Range Meter 1.1.1

––––––––––––––––––––––––––––––––––––––––
Analyzed: ? / ?
––––––––––––––––––––––––––––––––––––––––

DR Peak RMS Duration Track
––––––––––––––––––––––––––––––––––––––––
DR13 -6.43 dB -22.28 dB 9:25 01-Alice In Wonderland
DR13 -5.63 dB -21.06 dB 7:33 02-Give A Little Whistle
DR14 -6.02 dB -23.02 dB 3:54 03-Heigh-Ho
DR12 -6.73 dB -22.70 dB 4:49 04-When You Wish Upon A Star
DR14 -5.72 dB -23.10 dB 8:16 05-Someday My Prince Will Come
DR12 -6.47 dB -21.45 dB 4:57 06-One Song
DR14 -5.80 dB -22.43 dB 5:32 07-Very Good Advice
DR14 -5.99 dB -21.77 dB 5:56 08-So This Is Love
––––––––––––––––––––––––––––––––––––––––

Number of tracks: 8
Official DR value: DR13

Samplerate: 2822400 Hz / PCM Samplerate: 176400 Hz
Channels: 2
Bits per sample: 1
Bitrate: 5645 kbps
Codec: DSD64


Thanks to Faunts!
Uncompressed SACD ISO size > 2,03 GB
>