Tags
Language
Tags

David Grisman Quartet & Svend Asmussen - Fat Tuesdays NYC 1986 (1986/2021) [Official Digital Download 24/96]

Posted By: delpotro
David Grisman Quartet & Svend Asmussen - Fat Tuesdays NYC 1986 (1986/2021) [Official Digital Download 24/96]

David Grisman Quartet & Svend Asmussen - Fat Tuesdays NYC 1986 (1986/2021)
FLAC (tracks) 24-bit/96 kHz | Front Cover & Digital Booklet | Time - 147:42 minutes | 2,68 GB
Bluegrass, Americana | Label: Acoustic Disc, Official Digital Download

Acoustic Disc has announced the release of David Grisman Quartet with Svend Asmussen Live at Fat Tuesday's in a high definition, download format.

Asmussen, from Denmark, was an incredible violinist and one of the true pioneers of string jazz. He made his first recordings with the great Oscar Aleman in 1935, played and recorded with Fats Waller, Duke Ellington, Benny Goodman among others, and is featured on several of our projects, including a four volume Acoustic Oasis set of his classic early recordings. Grisman met Svend in 1985 at the Jazzhut Montmartre in Copenhagen and they became fast friends, toured together and released an album, Svingin’ with Svend in 1987.

This collection of live performances was recorded during a six-night stint at Fat Tuesdays, then Manhattan’s premiere jazz spot, in 1986 when Svend toured with the David Grisman Quartet, which then featured Jim Kerwin (bass), George Marsh (drums and percussion) and Dimitri Vandellos (guitars).

This set also includes two tracks with special guest mandolinist extraordinaire, Andy Statman. As Dawg puts it, "Svend passed away in 2017, just three weeks shy of his 101st birthday. To celebrate our friendship, here are some musical memories from a great week of music at Fat Tuesdays nearly 35 years ago."

Tracklist:
01 – EMD
02 – Svingin’ with Svend
03 – Steppin’ with Stephane
04 – Nadja
05 – Opus 38
06 – Band Intros
07 – Embraceable You
08 – Nuages
09 – Brazilian Breeze
10 – The Spirit Feel
11 – Chopin Prelude
12 – Limehouse Blues

SET 2
01 – 16/16
02 – It Don’t Mean a Thing
03 – Jitterbug Waltz
04 – A Fiddler in Rio
05 – Dawg Grass
06 – Dawgmatism
07 – Swing Mineur
08 – Bag’s Groove*
09 – Don’t Get Around Much Anymore
10 – Gypsy Medley
11 – June Night

foobar2000 1.4.1 / Dynamic Range Meter 1.1.1
log date: 2021-03-30 14:26:17

––––––––––––––––––––––––––––––––––––––––
Analyzed: David Grisman Quartet with Svend Asmussen / LIVE AT FAT TUESDAY'S
––––––––––––––––––––––––––––––––––––––––

DR Peak RMS Duration Track
––––––––––––––––––––––––––––––––––––––––
DR14 -0.53 dB -17.73 dB 3:43 01-AO26_d1_01_EMD.flac24
DR14 -0.51 dB -18.46 dB 8:30 02-AO26_d1_02_SVINGIN_WITH_SVEND.flac24
DR15 -0.57 dB -18.77 dB 8:59 03-AO26_d1_03_STEPPIN_WITH_STEPHANE.flac24
DR15 -0.62 dB -20.35 dB 6:23 04-AO26_d1_04_NADJA.flac24
DR13 -0.51 dB -17.06 dB 6:08 05-AO26_d1_05_OPUS_38.flac24
DR18 -2.87 dB -26.16 dB 1:10 06-AO26_d1_06_BAND_INTROS.flac24
DR15 -0.58 dB -20.96 dB 6:02 07-AO26_d1_07_EMBRACEABLE_YOU.flac24
DR15 -0.65 dB -19.87 dB 6:13 08-AO26_d1_08_NUAGES.flac24
DR15 -0.64 dB -19.16 dB 6:34 09-AO26_d1_09_BRAZILIAN_BREEZE.flac24
DR14 -0.55 dB -18.03 dB 8:05 10-AO26_d1_10_THE_SPIRIT_FEEL.flac24
DR12 -0.62 dB -18.20 dB 6:46 11-AO26_d1_11_CHOPIN_PRELUDE.flac24
DR16 -0.60 dB -19.80 dB 5:08 12-AO26_d1_12_LIMEHOUSE_BLUES.flac24
DR13 -0.52 dB -16.67 dB 4:13 13-AO26_d2_01_16 over 16.flac24
DR15 -0.54 dB -19.02 dB 8:45 14-AO26_d2_02_IT_DONT_MEAN_A_THING.flac24
DR15 -0.55 dB -19.63 dB 8:28 15-AO26_d2_03_JITTERBUG_WALTZ.flac24
DR14 -0.62 dB -17.56 dB 6:21 16-AO26_d2_04_A_FIDDLER_IN_RIO.flac24
DR12 -0.54 dB -15.51 dB 2:50 17-AO26_d2_05_DAWG_GRASS.flac24
DR15 -0.56 dB -19.21 dB 5:51 18-AO26_d2_06_DAWGMATISM.flac24
DR12 -0.54 dB -15.94 dB 7:47 19-AO26_d2_07_SWING_MINEUR.flac24
DR13 -0.65 dB -17.05 dB 12:57 20-AO26_d2_08_BAGS_GROOVE.flac24
DR15 -0.71 dB -19.90 dB 4:13 21-AO26_d2_09_DONT_GET_AROUND_MUCH_ANYMORE.flac24
DR13 -0.68 dB -16.06 dB 6:36 22-AO26_d2_10_GYPSY_MEDLEY.flac24
DR14 -0.63 dB -17.91 dB 6:00 23-AO26 d2 11 JUNE NIGHT.flac24
––––––––––––––––––––––––––––––––––––––––

Number of tracks: 23
Official DR value: DR14

Samplerate: 96000 Hz
Channels: 2
Bits per sample: 24
Bitrate: 2515 kbps
Codec: FLAC
================================================================================


Thanks to the Original customer!