Tags
Language
Tags

Deep Purple - Live in London 2002 (Remastered) (2021) [Official Digital Download 24/48]

Posted By: delpotro
Deep Purple - Live in London 2002 (Remastered) (2021) [Official Digital Download 24/48]

Deep Purple - Live in London 2002 (Remastered) (2021)
FLAC (tracks) 24-bit/48 kHz | Front Cover | Time - 109:17 minutes | 1,37 GB
Hard Rock, Classic Rock | Label: earMUSIC, Official Digital Download

The Soundboard Series focuses on the last three decades of concerts around the world. While some of the shows were previously available as rare and limited fan club editions, others are concerts from the artist archive, mixed and mastered for the occasion. In both cases, great care is spent to achieve the best audio quality.

"Live In London 2002" is a truly special show in the decades-long history of Deep Purple: It's not only previously unreleased but one of the very last concerts with Jon Lord before Don Airey joined the band shortly afterwards.

The celebrated Mark VII line-up is powering through an impressive setlist featuring worldwide hits, fan favourites and creative outbursts of improvisation. The audio of the full show was carefully restored from the original 48-track digital tape and mixed & mastered in April 2021, transporting the listeners back to that magic night at the Hammersmith Apollo - 19 years ago on February 22nd, 2002.

Tracklist:
01. Woman from Tokyo (Live in London 2002)
02. Ted the Mechanic (Live in London 2002)
03. Mary Long (Live in London 2002)
04. Lazy (Live in London 2002)
05. No One Came (Live in London 2002)
06. The Aviator (Live in London 2002)
07. The Well-Dressed Guitar (Live in London 2002)
08. Up the Wall (Live in London 2002)
09. Black Night (Live in London 2002)
10. Fools (Live in London 2002)
11. Jon Lord's Key Solo (Live in London 2002)
12. Perfect Strangers (Live in London 2002)
13. Steve Morse's Riff Parade (Live in London 2002)
14. Smoke on the Water (Live in London 2002)
15. Speed King (Live in London 2002)
16. Hush (Live in London 2002)

foobar2000 1.4.1 / Dynamic Range Meter 1.1.1
log date: 2021-08-10 12:10:55

––––––––––––––––––––––––––––––––––––––––
Analyzed: Deep Purple / Live in London 2002 (Remastered)
––––––––––––––––––––––––––––––––––––––––

DR Peak RMS Duration Track
––––––––––––––––––––––––––––––––––––––––
DR6 0.00 dB -7.28 dB 6:37 01-Woman from Tokyo (Live in London 2002)
DR5 0.00 dB -7.24 dB 5:41 02-Ted the Mechanic (Live in London 2002)
DR5 0.00 dB -6.56 dB 5:32 03-Mary Long (Live in London 2002)
DR5 0.00 dB -7.53 dB 7:07 04-Lazy (Live in London 2002)
DR6 0.00 dB -7.16 dB 6:34 05-No One Came (Live in London 2002)
DR6 0.00 dB -7.56 dB 5:33 06-The Aviator (Live in London 2002)
DR6 0.00 dB -7.66 dB 3:12 07-The Well-Dressed Guitar (Live in London 2002)
DR6 0.00 dB -6.89 dB 5:34 08-Up the Wall (Live in London 2002)
DR5 0.00 dB -7.30 dB 9:06 09-Black Night (Live in London 2002)
DR6 0.00 dB -7.82 dB 10:14 10-Fools (Live in London 2002)
DR8 0.00 dB -10.87 dB 2:27 11-Jon Lord's Key Solo (Live in London 2002)
DR6 0.00 dB -6.67 dB 6:54 12-Perfect Strangers (Live in London 2002)
DR6 0.00 dB -8.84 dB 6:52 13-Steve Morse's Riff Parade (Live in London 2002)
DR6 0.00 dB -6.83 dB 6:54 14-Smoke on the Water (Live in London 2002)
DR6 0.00 dB -7.89 dB 15:35 15-Speed King (Live in London 2002)
DR6 0.00 dB -8.25 dB 5:28 16-Hush (Live in London 2002)
––––––––––––––––––––––––––––––––––––––––

Number of tracks: 16
Official DR value: DR6

Samplerate: 48000 Hz
Channels: 2
Bits per sample: 24
Bitrate: 1800 kbps
Codec: FLAC
================================================================================


Thanks to the Original customer!