Tags
Language
Tags

Depeche Mode - Violation in San Francisco (2020) [Bootleg, 24bit/96kHz]

Posted By: delpotro
Depeche Mode - Violation in San Francisco (2020) [Bootleg, 24bit/96kHz]

Depeche Mode - Violation in San Francisco (2020)
Vinyl Rip | FLAC (tracks) 24-bit/96 kHz | Front Cover | Time - 112:17 minutes | 2,2 GB | Artwork - 13 MB
Synthpop | Label: Depeche Mode

Shoreline Amphitheatre, Mountain View, San Francisco, July 21, 1990 + bonus Dogers Stadium L.A.,CA, Aug.4 1990. Soundboard Recording.

Tracklist:
A1 – Kaleid (03:17)
A2 – World In My Eyes (05:15)
A3 – Halo (04:40)
A5 – Shake The Disease (05:15)
B1 – Everything Counts (06:06)
B2 – Master And Servant (03:57)
B3 – Never Let Me Down Again (06:59)
C1 – Waiting For The Night (05:43)
C2 – Here Is The House (04:36)
C3 – Sweetest Perfection (03:24)
C4 – Clean (06:18)
D1 – Stripped (06:31)
D2 – Policy Of Truth (05:05)
D3 – Enjoy The Silence (07:47)
E1 – Strangelove (05:02)
E2 – Personal Jesus (06:34)
E3 – Black Celebration (04:43)
E4 – A Question Of Time (04:34)
F1 – Behind The Wheel (05:32)
F2 – Route 66 (05:07)
F3 – I Want You Now (accustic) (03:18)
F4 – World Full Of Nothing (accustic ) (03:06)

foobar2000 1.4.1 / Dynamic Range Meter 1.1.1
log date: 2020-12-01 13:24:08

––––––––––––––––––––––––––––––––––––––––
Analyzed: Depeche Mode / Violation In San Francisco
––––––––––––––––––––––––––––––––––––––––

DR Peak RMS Duration Track
––––––––––––––––––––––––––––––––––––––––
DR12 -3.14 dB -19.37 dB 3:14 01-Kaleid
DR15 -0.47 dB -17.70 dB 5:15 02-World In My Eyes
DR15 -0.71 dB -17.36 dB 4:41 03-Halo
DR13 -1.94 dB -17.02 dB 5:17 04-Shake The Disease
DR16 -0.17 dB -17.50 dB 6:08 05-Everything Counts
DR15 -0.66 dB -18.01 dB 3:58 06-Master And Servant
DR15 -1.21 dB -19.04 dB 7:00 07-Never Let Me Down Again
DR12 -3.77 dB -18.11 dB 5:43 08-Waiting For The Night
DR17 -3.87 dB -23.74 dB 4:23 09-Here Is The House
DR18 -1.34 dB -22.35 dB 3:36 10-Sweetest Perfection
DR15 -1.62 dB -20.54 dB 6:20 11-Clean
DR16 -0.78 dB -19.12 dB 6:29 12-Stripped
DR15 -0.25 dB -17.07 dB 5:05 13-Policy Of Truth
DR14 -0.55 dB -17.77 dB 7:47 14-Enjoy The Silence
DR16 -0.35 dB -18.23 dB 5:03 15-Strangelove
DR14 -1.62 dB -18.81 dB 6:11 16-Personal Jesus
DR14 -1.58 dB -18.69 dB 4:43 17-Black Celebration
DR14 -2.02 dB -18.74 dB 4:22 18-A Question Of Time
DR12 -2.96 dB -16.66 dB 5:32 19-Behind The Wheel
DR13 -2.36 dB -17.70 dB 5:08 20-Route 66
DR11 -4.75 dB -18.09 dB 3:20 21-I Want You Now (accustic)
DR11 -4.74 dB -18.62 dB 3:04 22-World Full Of Nothing (accustic)
––––––––––––––––––––––––––––––––––––––––

Number of tracks: 22
Official DR value: DR14

Samplerate: 96000 Hz
Channels: 2
Bits per sample: 24
Bitrate: 2748 kbps
Codec: FLAC
================================================================================


Thanks to the Original customer!