Diana Tomsche, Esther Valentin, Heidelberger Sinfoniker & Timo Jouko Herrmann - Strictly Private (2020) [ODD]

Posted By: El Misha
Diana Tomsche, Esther Valentin, Heidelberger Sinfoniker & Timo Jouko Herrmann - Strictly Private (2020) [ODD]

Diana Tomsche, Esther Valentin, Heidelberger Sinfoniker & Timo Jouko Herrmann - Strictly Private (2020)
FLAC (tracks) 24-bit/48 kHz | Time - 55:18 | 543 MB
Studio Master, Official Digital Download | Artwork: Front cover+digital booklet

Very little is known today about the personal life of composer Antonio Salieri, if only because he left very few private documents to posterity. An autobiography of the composer, presented to the Gesellschaft der Musikfreunde among other papers by his grandson Eduard Rumfeld in 1865, is lost. To learn more of Salieri, then, it is necessary to refer to sources such as diaries and letters by close friends. One rewarding source has proved to be the diary of Joseph Rosenbaum, who married the daughter of Salieris teacher Florian Leopold Gassmann and was on friendly terms with the artist for many years. This recording seeks to bring us closer to Salieri the man with works that he composed for performance among friends. They show the composer in quite a different light from the operatic works that he wrote to enhance the prestige of the Viennese court.



Tracklist:

01. Tu sai, Germana amata: No. 1, Tu sai, Germana amata
02. Tu sai, Germana amata: No. 2, Secondate i nostri affetti
03. Tu sai, Germana amata: No. 3, Si onori, e festeggi
04. Cantabile in G Major
05. La preghiera sudditta (Gott! Erhalt‘ zu unsrer Wonne)
06. Per la ricuperata salute di Ofelia (Arr. T.J. Herrmann): No. 1, Lascia la greggia
07. Per la ricuperata salute di Ofelia (Arr. T.J. Herrmann): No. 2, Quell‘ agnelletto candido
08. Per la ricuperata salute di Ofelia (Arr. T.J. Herrmann): No. 3, Lascia la greggia
09. Andante devoto in D Minor
10. Deh mira, oh Nice: No. 1, Deh mira, oh Nice
11. Deh mira, oh Nice: No. 2, Tenero cor
12. Deh mira, oh Nice: No. 3, Ah! Ch’or m’aveggo
13. Deh mira, oh Nice: No. 4, D’un cor figlial, e grato
14. Serenade in F Major: I. Larghetto maestoso
15. Serenade in F Major: II. Andantino
16. Serenade in F Major: III. Minuetto arioso
17. Serenade in F Major: IV. Finale. Presto
18. Il ciel cortese: No. 1, Il ciel cortese
19. Il ciel cortese: No. 2, Vivi pur felice ognora
20. Il ciel cortese: No. 3, Si onori, e festeggi

foobar2000 1.4 / Dynamic Range Meter 1.1.1
log date: 2021-01-12 21:30:39

––––––––––––––––––––––––––––––––––––––––
Analyzed: Diana Tomsche / Strictly Private (1-9)
Esther Valentin / Strictly Private (10-13)
Heidelberger Sinfoniker / Strictly Private (14-20)
––––––––––––––––––––––––––––––––––––––––

DR Peak RMS Duration Track
––––––––––––––––––––––––––––––––––––––––
DR13 -5.24 dB -23.09 dB 1:04 01-No. 1, Tu sai, Germana amata
DR12 -0.75 dB -20.06 dB 2:03 02-No. 2, Secondate i nostri affetti
DR11 -0.75 dB -16.22 dB 3:05 03-No. 3, Si onori, e festeggi
DR12 -0.76 dB -17.91 dB 2:57 05-La preghiera sudditta (Gott! Erhalt‘ zu unsrer Wonne)
DR13 -4.65 dB -21.21 dB 1:24 06-No. 1, Lascia la greggia
DR12 -1.08 dB -18.39 dB 1:23 07-No. 2, Quell‘ agnelletto candido
DR16 -2.82 dB -26.07 dB 4:00 18-No. 1, Il ciel cortese
DR15 -0.76 dB -19.97 dB 4:38 19-No. 2, Vivi pur felice ognora
DR10 -0.75 dB -15.08 dB 2:21 20-No. 3, Si onori, e festeggi
DR15 -4.62 dB -25.60 dB 3:04 10-No. 1, Deh mira, oh Nice
DR13 -1.33 dB -21.43 dB 2:11 11-No. 2, Tenero cor
DR13 -1.53 dB -22.87 dB 1:28 12-No. 3, Ah! Ch’or m’aveggo
DR14 -2.00 dB -20.94 dB 3:45 13-No. 4, D’un cor figlial, e grato
DR13 -6.16 dB -24.78 dB 6:46 04-Cantabile in G Major
DR11 -3.54 dB -20.23 dB 1:32 08-No. 3, Lascia la greggia
DR12 -10.83 dB -29.40 dB 3:03 09-Andante devoto in D Minor
DR17 -0.78 dB -23.02 dB 2:57 14-I. Larghetto maestoso
DR14 -0.76 dB -21.02 dB 1:14 15-II. Andantino
DR13 -3.82 dB -20.88 dB 2:31 16-III. Minuetto arioso
DR14 -1.26 dB -22.50 dB 4:01 17-IV. Finale. Presto
––––––––––––––––––––––––––––––––––––––––

Number of tracks: 20
Official DR value: DR13

Samplerate: 48000 Hz
Channels: 2
Bits per sample: 24
Bitrate: 1323 kbps
Codec: FLAC
================================================================================



Thanks to the Original customer!