Tags
Language
Tags

Dinah Washington and Quincy Jones And His OrchestraThe - The Swingin' Miss "D" (2021) [Official Digital Download 24/96]

Posted By: El Misha
Dinah Washington and Quincy Jones And His OrchestraThe - The Swingin' Miss "D" (2021) [Official Digital Download 24/96]

Dinah Washington and Quincy Jones And His OrchestraThe - The Swingin' Miss "D" (2021)
FLAC (tracks) 24-bit/96 kHz | Time - 52:09 | 502 MB
Studio Master, Official Digital Download | Artwork: Front cover

Dinah Washington was accompanied by an orchestra organized and conducted by Quincy Jones on this 1957 album, and she was singing to arrangements mostly written by the young bandleader, swing charts of pop standards by the likes of Cole Porter, George Gershwin, and Duke Ellington. The result had much in common with the swing albums of Frank Sinatra in the same period, especially because Jones' arrangements were heavily influenced by Billy May and Nelson Riddle. Sinatra's records were regarded as "pop, " of course, and Washington's, at least when released on the EmArcy subsidiary of Mercury Records, as "jazz, " but her precise articulation and attention to lyrical meaning left little room for improvisation, and while Jones allowed for brief solos from a band that included Charlie Shavers, Clark Terry, Urbie Green, and Milt Hinton, the jazz categorization was actually arbitrary. Whatever musical genre you assign it to, however, this is an excellent Washington album. [For the 1998 reissue, Verve added seven bonus tracks recorded around the same time and with much the same personnel, though they were intended as singles and thus are inferior contemporary tunes. Often, however, Washington sounds more comfortable and enthusiastic on these pop and R&B songs than she does on the standards.]



Tracklist:

01. They Didn't Believe Me
02. You're Crying
03. Makin' Whoopee
04. Ev'ry Time We Say Goodbye
05. But Not for Me
06. Caravan
07. Perdido
08. Never Let Me Go
09. Is You Is or Is You Ain't My Baby?
10. I'll Close My Eyes
11. Somebody Loves Me
12. I'll Drown in My Tears
13. You Let My Love Grow Cold
14. Bargain Day
15. Relax Max
16. Tears to Burn
17. The Kissing Way Home
18. I Know

foobar2000 1.4 / Dynamic Range Meter 1.1.1
log date: 2021-08-13 08:52:36

––––––––––––––––––––––––––––––––––––––––
Analyzed: Dinah Washington / The Swingin' Miss ''D''
––––––––––––––––––––––––––––––––––––––––

DR Peak RMS Duration Track
––––––––––––––––––––––––––––––––––––––––
DR12 0.00 dB -14.93 dB 2:49 01-They Didn't Believe Me (Remastered)
DR10 0.00 dB -13.64 dB 3:33 02-You're Crying (Remastered)
DR12 -0.14 dB -13.82 dB 2:30 03-Makin' Whoopee (Remastered)
DR9 0.00 dB -12.40 dB 2:32 04-Ev'ry Time We Say Goodbye (Remastered)
DR10 0.00 dB -12.52 dB 2:28 05-But Not For Me (Remastered)
DR12 0.00 dB -13.86 dB 2:41 06-Caravan (Remastered)
DR11 -0.01 dB -13.84 dB 3:26 07-Perdido (Remastered)
DR12 -0.59 dB -15.46 dB 2:46 08-Never Let Me Go (Remastered)
DR11 0.00 dB -12.96 dB 3:00 09-Is You Is Or Is You Ain't My Baby? (Remastered)
DR11 -0.97 dB -14.62 dB 4:01 10-I'll Close My Eyes (Remastered)
DR10 0.00 dB -12.81 dB 2:48 11-Somebody Loves Me (Remastered)
DR12 0.00 dB -14.49 dB 3:12 12-I'll Drown In My Tears (Remastered)
DR10 -0.01 dB -11.94 dB 2:30 13-You Let My Love Grow Cold (Remastered)
DR11 0.00 dB -13.89 dB 2:55 14-Bargain Day (Remastered)
DR11 0.00 dB -12.58 dB 2:46 15-Relax, Max (Remastered)
DR11 0.00 dB -13.56 dB 2:47 16-Tears To Burn (Remastered)
DR12 0.00 dB -14.65 dB 2:27 17-The Kissing Way Home (Remastered)
DR12 0.00 dB -15.33 dB 3:07 18-I Know (Remastered)
––––––––––––––––––––––––––––––––––––––––

Number of tracks: 18
Official DR value: DR11

Samplerate: 96000 Hz
Channels: 2
Bits per sample: 24
Bitrate: 1386 kbps
Codec: FLAC
================================================================================



Thanks to the Original customer!