Tags
Language
Tags

Eddie Higgins Quartet - My Funny Valentine (2005) [Japan 2014] SACD ISO + DSD64 + Hi-Res FLAC

Posted By: HDAtall
Eddie Higgins Quartet - My Funny Valentine (2005) [Japan 2014] SACD ISO + DSD64 + Hi-Res FLAC

Eddie Higgins Quartet - My Funny Valentine (2005) [Japan 2014]
SACD Rip | SACD ISO | DSD64 2.0 > 1-bit/2.8224 MHz | 67:34 minutes | Front/Rear Covers | 2,17 GB
or DSD64 Stereo (from SACD-ISO to Tracks.dsf) > 1-bit/2.8224 MHz | Front/Rear Covers | 1,95 GB
or FLAC 2.0 (carefully converted & encoded to tracks) 24bit/48 kHz | Front/Rear Covers | 854 MB

Through his numerous releases from Venus Records, Eddie Higgins has firmly established his position as one of the most celebrated veteran jazz pianists in Japan. On My Funny Valentine, Higgins is joined by his quartet consisting of Scott Hamilton on tenor sax, Jay Leonhart on bass, and Joe Ascione on drums.

Tracklist:

01. You'd Be So Nice To Come Home To
02. I'm A Fool To Want You
03. When Sunny Gets Blue
04. Alone Together
05. My Funny Valentine
06. It's All Right With Me
07. Stardust
08. I Only Have Eyes For You
09. Don't Explain
10. Slow Boat To China
11. Imagination

Personnel
Eddie Higgins - piano
Scott Hamilton - tenor sax
Jay Leonhart - bass
Joe Ascione - drums

Produced, Mixed & Mastered by Tetsuo Hara. Engineered by David Darlington.
Recorded on September 11-12, 2004 at Avatar Studio in New York.
Venus Hyper Magnum Sound Direct Mix. VENUS Japan # VHGD-30.

foobar2000 1.6.4 / Dynamic Range Meter 1.1.1

––––––––––––––––––––––––––––––––––––––––
Analyzed: Eddie Higgins Quartet / MY FUNNY VALENTINE
––––––––––––––––––––––––––––––––––––––––

DR Peak RMS Duration Track
––––––––––––––––––––––––––––––––––––––––
DR7 -5.48 dB -14.38 dB 6:58 01-You'd Be So Nice To Come Home To
DR7 -5.49 dB -14.90 dB 3:53 02-I'm A Fool To Want You
DR8 -5.64 dB -15.82 dB 4:52 03-When Sunny Gets Blue
DR7 -5.35 dB -14.03 dB 7:05 04-Alone Together
DR8 -5.68 dB -16.84 dB 3:36 05-My Funny Valentine
DR7 -5.36 dB -14.15 dB 7:50 06-It's All Right With Me
DR7 -5.50 dB -15.18 dB 7:08 07-Stardust
DR7 -5.44 dB -14.13 dB 6:42 08-I Only Have Eyes For You
DR8 -5.56 dB -16.35 dB 6:58 09-Don't Explain
DR6 -5.34 dB -13.22 dB 7:10 10-Slow Boat To China
DR8 -5.61 dB -16.08 dB 5:22 11-Imagination
––––––––––––––––––––––––––––––––––––––––

Number of tracks: 11
Official DR value: DR7

Samplerate: 2822400 Hz / PCM Samplerate: 176400 Hz
Channels: 2
Bits per sample: 1
Bitrate: 5645 kbps
Codec: DSD64


Thanks to jazzyman!
Uncompressed SACD ISO size > 2,72 GB
>