Tags
Language
Tags

Elton John - Sleeping With The Past (Remastered 180 Gram Vinyl) (1989/2017) [24bit/192kHz]

Posted By: delpotro
Elton John - Sleeping With The Past (Remastered 180 Gram Vinyl) (1989/2017) [24bit/192kHz]

Elton John - Sleeping With The Past (Remastered 180 Gram Vinyl) (1989/2017)
Vinyl Rip | FLAC (tracks) 24-bit/192 kHz | Time - 47:34 minutes | 1,92 GB | Artwork - 5 MB
Pop Rock | Label: Mercury Records

The Elton John Vinyl Club 2017 collection of reissues wraps up with today’s release of "Sleeping With The Past" (1989) and "Elton John – One Night Only: The Greatest Hits" (2000) on 180gm vinyl.

Sleeping with the Past is the 22nd studio album by the English singer-songwriter Elton John, released on 29 August 1989. It is his best-selling album in Denmark (where it was recorded) and is dedicated to his longtime writing partner Bernie Taupin. The album features his first solo number-one single, "Sacrifice", in his home country of the UK, which helped the album also hit number one there, his first since 1974's Elton John's Greatest Hits. John and Taupin meant for the songs to reflect the style of 1960s R&B icons such as Marvin Gaye, Otis Redding and Sam Cooke, whom they admired. It also became his first platinum album in the UK since 1983. In the US it was certified gold in October 1989 and platinum in April 1990 by the RIAA. Guy Babylon made his debut on this album and would continue to play keyboards with John for the next 20 years, while Fred Mandel left the band shortly after. John went into rehabilitation in 1990.

Tracklist:
A1 – Durban Deep (05:32)
A2 – Healing Hands (04:24)
A3 – Whispers (05:29)
A4 – Club At The End Of The Street (04:50)
A5 – Sleeping With The Past (04:59)
B1 – Stone's Throw From Hurtin' (04:55)
B2 – Sacrifice (05:07)
B3 – I Never Knew Her Name (03:33)
B4 – Amazes Me (04:39)
B5 – Blue Avenue (04:21)

foobar2000 1.4.1 / Dynamic Range Meter 1.1.1
log date: 2021-02-27 09:27:39

––––––––––––––––––––––––––––––––––––––––
Analyzed: Elton John / Sleeping With The Past
––––––––––––––––––––––––––––––––––––––––

DR Peak RMS Duration Track
––––––––––––––––––––––––––––––––––––––––
DR12 -2.39 dB -16.50 dB 5:28 01-Durban Deep
DR12 -0.59 dB -15.32 dB 4:23 02-Healing Hands
DR12 -2.85 dB -16.41 dB 5:30 03-Whispers
DR12 -2.36 dB -15.49 dB 4:48 04-Club At The End Of The Street
DR13 -1.19 dB -15.40 dB 4:58 05-Sleeping With The Past
DR12 -1.87 dB -14.64 dB 4:57 06-Stone's Throw From Hurtin'
DR11 -2.44 dB -14.92 dB 5:05 07-Sacrifice
DR13 -0.58 dB -15.35 dB 3:31 08-I Never Knew Her Name
DR12 -2.54 dB -15.96 dB 4:39 09-Amazes Me
DR12 -2.98 dB -17.99 dB 4:17 10-Blue Avenue
––––––––––––––––––––––––––––––––––––––––

Number of tracks: 10
Official DR value: DR12

Samplerate: 192000 Hz
Channels: 2
Bits per sample: 24
Bitrate: 5605 kbps
Codec: FLAC
================================================================================


Vinyl State Class Code: Mint
Playback device: SONY PS-X800 (linear biotracer)
Pickup Head: SHURE V15 Type IV
Preamplifier: Pro-Ject Phono Box RS (per channel battery power)
ADC: TASCAM DA-3000

Processing: no

Thanks to the Original customer!