Tags
Language
Tags

Evritiki Zygia - Ormenion (2020) [Official Digital Download 24/48]

Posted By: delpotro
Evritiki Zygia - Ormenion (2020) [Official Digital Download 24/48]

Evritiki Zygia - Ormenion (2020)
FLAC (tracks) 24-bit/48 kHz | Front Cover | Time - 43:17 minutes | 538 MB
World, Psychedelic | Label: Teranga Beat, Official Digital Download

Teranga Beat proudly presents Ormenion, a record by the group Evritiki Zygia. Ormenion is a historical region that dates back to the Byzantine Empire. It is the northernmost inhabited region of Greece, where the last railway station of the country is located. During the 1920's it was inhabited by refugees coming from the North and Eastern Thrace. Immigration is central to the history of the region of Thrace, where there are many songs that refer to refugees and moving populations. The name of the particular place was selected as the album title due to its delicate cultural and geographic status: Ormenion coincides with the borders of three different countries (Greece, Bulgaria and Turkey) and its history counts several waves of immigration that gave way to cultural and even linguistic exchange -elements that obviously left their mark on the group.

The group Evritiki Zygia was founded in 2007 by five musicians who played mostly in local festivals, their main concern being the preservation and evolution of the Thracian musical tradition. The collaboration with Teranga Beat helped this project evolve even further. Forms of arrangement different than the ones used in local feasts and festivals, were introduced giving more space to the dynamics of the instruments and allowing musicians to show both their improvisational and compositional skills. The distinctively psychedelic element of Thracian music was enhanced with the introduction of the CRB-Diamond 800 organ and the Moog, giving the whole project a hybrid sound with a unique identity. The album contains both covers of traditional songs and original compositions.

The band's highest point was their appearance at the Womex Festival in 2018, where their music was presented for the first time in front of an international audience. This was an extremely important achievement for us, given that up until then this type of music remained unknown even to Greek audiences. But it was also a great and very creative experience for the band, as it broadened up its musical horizons.

Tracklist:
1. Fog (06:04)
2. Maritsa (04:54)
3. 5 Nights (06:53)
4. Karsilamas (05:22)
5. Ormenion (06:22)
6. Anastenariko (Firewaliking Dance) (06:42)
7. The Sun is Setting (07:01)

foobar2000 1.4.1 / Dynamic Range Meter 1.1.1
log date: 2020-08-08 17:09:45

––––––––––––––––––––––––––––––––––––––––
Analyzed: Evritiki Zygia / Ormenion
––––––––––––––––––––––––––––––––––––––––

DR Peak RMS Duration Track
––––––––––––––––––––––––––––––––––––––––
DR8 -0.27 dB -10.69 dB 6:04 01-Fog
DR9 -0.27 dB -11.33 dB 4:54 02-Maritsa
DR7 -0.27 dB -9.32 dB 6:53 03-5 Nights
DR9 -0.27 dB -11.39 dB 5:22 04-Karsilamas
DR8 -0.27 dB -11.33 dB 6:22 05-Ormenion
DR9 -0.27 dB -10.94 dB 6:42 06-Anastenariko (Firewaliking Dance)
DR8 -0.27 dB -9.25 dB 7:01 07-The Sun is Setting
––––––––––––––––––––––––––––––––––––––––

Number of tracks: 7
Official DR value: DR8

Samplerate: 48000 Hz
Channels: 2
Bits per sample: 24
Bitrate: 1770 kbps
Codec: FLAC
================================================================================


Thanks to the Original customer!