Tags
Language
Tags

Fat Freddy's Drop - WAIRUNGA (2021) [Official Digital Download 24/48]

Posted By: delpotro
Fat Freddy's Drop - WAIRUNGA (2021) [Official Digital Download 24/48]

Fat Freddy's Drop - WAIRUNGA (2021)
FLAC (tracks) 24-bit/48 kHz | Front Cover | Time - 58:08 minutes | 689 MB
Dub, Reggae | Label: The Drop, Official Digital Download

Read all about it. Our new WAIRUNGA album features five fresh Freddy songs and we revisit two classics, all captured during a secret outdoor performance sans audience with wild weather elements playing an important creative role. WAIRUNGA digital release out the gate 20th Aug with vinyl to follow.

We embark on the national WAIRUNGA Album Release Tour this Sept, playing Christchurch Town Hall 10 Sept and Dunedin Town Hall 11 Sept with special guest Harper Finn, Nelson’s Trafalgar Centre 16 Sept and Wellington’s Michael Fowler Centre 18 Sept with Special Guest Deva Mahal, and Auckland Town Hall 23 Sept and Hamilton’s The Factory 25 Sept with Special Guest Rubi Du. Tickets On Sale MON 19 July. Chur.

WAIRUNGA album unleashes 'Coffee Black' cosmic hot buttered soul and cinematic wigged out psyche-blues, 'Shady' an Afro-Acid adventure, ’Bush Telegraph' reggae dub feat MC Slave, and 'Leave Your Window Open' and 'Dig Deep', loose rhythmic experiments with subterranean bass and twisted up melodies. 'Bones' and 'Wairunga Blues' are our rebirth of cool classics, the latter a fitting tribute to this magical place.

Places we roam, Wairunga is located deep in Ngāti Kahungunu country overlooking Waimarama, an oasis of green pasture and native tree-filled valleys that fall away to the ocean below. It's etched into our DNA over the past 20 years; a place to party, relax between tours, even to get married, and yes the inspiration for 'Wairunga Blues' originally released on BAYS album.

Throwing caution to the trade winds, literally, we set up on a grass tennis court surrounded by a bush backdrop. The weather elements ranged from calm to tempest-like bursts of rain and chill winds. We dug deep, lost in the moment. Keeping on the LOCK-IN tip, our WAIRUNGA performance was filmed and a one hour concert film special will premiere free online 31st July and 1st August. Appointment viewing and a taste of the album and tour on the horizon. Arohanui everyone. Stay tuned!!

Tracklist:
01. Coffee Black
02. Bones
03. Shady
04. Wairunga Blues
05. Bush Telegraph
06. Leave Your Window Open
07. Dig Deep

foobar2000 1.4.1 / Dynamic Range Meter 1.1.1
log date: 2021-08-19 21:38:59

––––––––––––––––––––––––––––––––––––––––
Analyzed: Fat Freddy's Drop / WAIRUNGA
––––––––––––––––––––––––––––––––––––––––

DR Peak RMS Duration Track
––––––––––––––––––––––––––––––––––––––––
DR5 -0.17 dB -7.10 dB 8:11 01-Coffee Black
DR6 -0.17 dB -7.99 dB 8:23 02-Bones
DR5 -0.17 dB -6.88 dB 7:10 03-Shady
DR6 -0.17 dB -7.17 dB 5:30 04-Wairunga Blues
DR5 -0.17 dB -7.26 dB 6:55 05-Bush Telegraph
DR6 -0.17 dB -8.06 dB 11:30 06-Leave Your Window Open
DR5 -0.17 dB -6.66 dB 10:30 07-Dig Deep
––––––––––––––––––––––––––––––––––––––––

Number of tracks: 7
Official DR value: DR6

Samplerate: 48000 Hz
Channels: 2
Bits per sample: 24
Bitrate: 1638 kbps
Codec: FLAC
================================================================================


Thanks to the Original customer!