Fela Ransome-Kuti & The Africa '70 - Open & Close (RSD 2021 50th Anniversary Reissue Vinyl) (1971/2021) [24bit/192kHz]

Posted By: delpotro
Fela Ransome-Kuti & The Africa '70 - Open & Close (RSD 2021 50th Anniversary Reissue Vinyl) (1971/2021) [24bit/192kHz]

Fela Ransome-Kuti & The Africa '70 - Open & Close (RSD 2021 50th Anniversary Reissue Vinyl) (1971/2021)
Vinyl Rip | FLAC (tracks) 24-bit/192 kHz | Time - 37:21 minutes | 1,4 GB | Artwork - 120 MB
Funk, Afrobeat | Label: Knitting Factory Records

To celebrate the 50th anniversary of Fela Kuti's classic Open & Close, Knitting Factory Records is pleased to announce the first vinyl pressing since the 1980s. This edition features a return to the original gatefold jacket and will be pressed on red and yellow butterfly effect vinyl. Limited edition of 7000.

Open and Close: This song is teaching its listeners how to move Fela’s Afrobeat song called Open & Close – a dance choreography with a lot of African vitality.

Swegbe and Pako: Sung in ‘broken-English’ is about good and bad—competence and its opposite—incompetence. According to Fela, a carpenter who does not know his trade is :’Swegbe’. A tailor who sews like someone in the carpentry trade is another ‘Swegbe’. A doctor acting like a lawyer is ‘Swegbe’, same with a lawyer trying to act like a doctor. On the other hand, a carpenter competent at his work is ‘Pako’. Same with the tailor, lawyer and doctor. If you are in a position of responsibility and you do your work with competence then you are ‘Pako’. On the other hand if you do it bad you are ‘Swegbe’—If you are good you are ‘Pako’ and if you are bad you are ‘Swegbe’.

Gbagada Gbagada Gbogodo Gbogodo: Is another Folk song recounting the war gallantry of the Egbas against the colonial forces and their agents on the coasts of West Africa. The Egba war with the British colonial force was led by Abudi, a renowned Egba war general. Fela starts the song by calling on his listeners to please help him sing this folk song, Gbagada Gbagada Gbogodo Gbogodo, a tale of pandemonium caused by attacking colonial British forces. Proudly, the people went to war against the colonial British force and their coastal African allies. The resisting Egba forces believed they were not only resisting for themselves, but also for the love of their children—‘Oh! Oh! Oya oh! Eni omo wun oya kalo oh!(Meaning if you love your children! Let us go to war!)’.

Tracklist:
A – Open And Close
B1 – Suegbe And Pako
B2 – Gbagada Gbogodo

foobar2000 1.4.1 / Dynamic Range Meter 1.1.1
log date: 2021-06-23 14:05:18

––––––––––––––––––––––––––––––––––––––––
Analyzed: Fela Ransome-Kuti & The Africa '70 / Open and Close
––––––––––––––––––––––––––––––––––––––––

DR Peak RMS Duration Track
––––––––––––––––––––––––––––––––––––––––
DR13 -2.00 dB -18.33 dB 15:09 01-Open And Close
DR13 -3.30 dB -19.26 dB 12:47 02-Suegbe And Pako
DR13 -3.42 dB -19.48 dB 9:27 03-Gbagada Gbogodo
––––––––––––––––––––––––––––––––––––––––

Number of tracks: 3
Official DR value: DR13

Samplerate: 192000 Hz
Channels: 2
Bits per sample: 24
Bitrate: 5132 kbps
Codec: FLAC
================================================================================


LINEAGE: 2021 RSD Knitting Factory Records KFR2005-5 vinyl; Pro-Ject RM-5SE with Audio Tecnica Signet TK7E cartridge; Speedbox power supply; Creek Audio OBH-15; Audioquest Black Mamba and Pangea Premier interconnect cables; M-Audio Audiophile 192 Soundcard ; Adobe Audition at 32-bit float 192khz; clicks and pops removed manually with Adobe Audition 3.0; resampled and dithered using iZotope RX Advanced. Converted to FLAC in either Trader's Little Helper or dBPoweramp. Tags done with Foobar 2000 and Tag and Rename.

Thanks to the Original customer!