Tags
Language
Tags

Fleeting Joys - All Lost Eyes and Glitter (2021) [Official Digital Download 24/96]

Posted By: delpotro
Fleeting Joys - All Lost Eyes and Glitter (2021) [Official Digital Download 24/96]

Fleeting Joys - All Lost Eyes and Glitter (2021)
FLAC (tracks) 24-bit/96 kHz | Front Cover | Time - 35:23 minutes | 773 MB
Alternative Rock, Shoegaze | Label: Only Forever Recordings, Official Digital Download

"Swirling guitars… layers of noise… drugged out soft male and female vocals going back and forth… sounding like part love, part death, part hope, part sadness. It's as if they've turned their instruments into liquid and poured them into your ears."

Created and recorded in their own studio during isolation - the songs build on the signature shoegaze guitars bringing in new elements of 80's synths and 60's mellotrons creating melancholic hope during a unique time in life.

Tracklist:
1. Something In Your Melody (03:59)
2. Hooked Into My Soul (04:49)
3. Change My Sign (04:19)
4. Dreaming Girl In A Drowning World (03:30)
5. Try To Find Something Out (02:25)
6. Spiked Out (04:59)
7. Quickly Through Kingdoms (03:25)
8. Throwaway (04:22)
9. Sing To The Sea (03:34)

foobar2000 1.4.1 / Dynamic Range Meter 1.1.1
log date: 2021-11-28 16:02:55

––––––––––––––––––––––––––––––––––––––––
Analyzed: Fleeting Joys / All Lost Eyes and Glitter
––––––––––––––––––––––––––––––––––––––––

DR Peak RMS Duration Track
––––––––––––––––––––––––––––––––––––––––
DR5 -0.16 dB -7.00 dB 3:59 01-Something in Your Melody
DR5 -0.16 dB -7.90 dB 4:49 02-Hooked Into My Soul
DR4 -0.16 dB -6.38 dB 4:19 03-Change My Sign
DR4 -0.16 dB -6.47 dB 3:30 04-Dreaming Girl in a Drowning World
DR6 -0.16 dB -7.49 dB 2:25 05-Try to Find Something Out
DR5 -0.16 dB -6.72 dB 4:59 06-Spiked Out
DR6 -0.16 dB -7.93 dB 3:25 07-Quickly Through Kingdoms
DR5 -0.16 dB -6.99 dB 4:22 08-Throwaway
DR8 -0.16 dB -10.70 dB 3:34 09-Sing to the Sea
––––––––––––––––––––––––––––––––––––––––

Number of tracks: 9
Official DR value: DR5

Samplerate: 96000 Hz
Channels: 2
Bits per sample: 24
Bitrate: 2896 kbps
Codec: FLAC
================================================================================


Thanks to the Original customer!