Tags
Language
Tags

Flotsam And Jetsam - Blood in the Water (2021) [Official Digital Download]

Posted By: delpotro
Flotsam And Jetsam - Blood in the Water (2021) [Official Digital Download]

Flotsam And Jetsam - Blood in the Water (2021)
FLAC (tracks) 24-bit/44,1 kHz | Front Cover | Time - 53:36 minutes | 666 MB
Thrash Metal | Label: AFM Records, Official Digital Download

Legends in Thrash - crushing, rolling and knocking you down with their new album "Blood In The Water". Delivering finest fast and hard metal for new- and oldschool thrasher alike!

Tracklist:
1. Blood in the Water (04:17)
2. Burn the Sky (04:26)
3. Brace for Impact (04:33)
4. A Place to Die (04:22)
5. The Walls (04:41)
6. Cry For the Dead (04:36)
7. The Wicked Hour (04:56)
8. Too Many Lives (04:49)
9. Grey Dragon (04:27)
10. Reaggression (04:10)
11. Undone (03:19)
12. Seven Seconds 'Til the End of the World (04:53)

foobar2000 1.4.4 / Dynamic Range Meter 1.1.1
log date: 2021-06-30 11:02:33

––––––––––––––––––––––––––––––––––––––––
Analyzed: Flotsam And Jetsam / Blood in the Water
––––––––––––––––––––––––––––––––––––––––

DR Peak RMS Duration Track
––––––––––––––––––––––––––––––––––––––––
DR6 -1.11 dB -8.21 dB 4:17 01-Blood in the Water
DR6 -1.07 dB -8.06 dB 4:27 02-Burn the Sky
DR6 -1.08 dB -8.48 dB 4:34 03-Brace for Impact
DR6 -1.13 dB -8.09 dB 4:22 04-A Place to Die
DR6 -1.03 dB -7.80 dB 4:41 05-The Walls
DR6 -1.09 dB -9.08 dB 4:37 06-Cry For the Dead
DR6 -1.05 dB -8.42 dB 4:57 07-The Wicked Hour
DR7 -1.14 dB -8.66 dB 4:50 08-Too Many Lives
DR7 -1.06 dB -9.32 dB 4:27 09-Grey Dragon
DR6 -1.04 dB -8.31 dB 4:11 10-Reaggression
DR6 -1.06 dB -8.45 dB 3:20 11-Undone
DR6 -1.02 dB -8.43 dB 4:53 12-Seven Seconds 'Til the End of the World
––––––––––––––––––––––––––––––––––––––––

Number of tracks: 12
Official DR value: DR6

Samplerate: 44100 Hz
Channels: 2
Bits per sample: 24
Bitrate: 1694 kbps
Codec: FLAC
================================================================================


Thanks to the Original customer!