Jonathan Fournel, Keigo Mukawa & Sergei Redkin - Queen Elisabeth Competition: Piano 2021 (2021) [Digital Download 24/96]

Posted By: delpotro
Jonathan Fournel, Keigo Mukawa & Sergei Redkin - Queen Elisabeth Competition: Piano 2021 (2021) [Digital Download 24/96]

Jonathan Fournel, Keigo Mukawa & Sergei Redkin - Queen Elisabeth Competition: Piano 2021 (2021)
FLAC (tracks) 24-bit/96 kHz | Front Cover & Digital Booklet | Time - 287:33 minutes | 4,7 GB
Classical | Label: Queen Elisabeth Competition, Official Digital Download

French pianist Jonathan Fournelm, 27, has won this year’s Queen Elisabeth Piano Competition. Second Prize was awarded to Rusian pianist Sergei Redkin and third Prize to Keigo Mukawa (Japan).

This is a historical moment for the Music Chapel as Jonathan Fournel is the very first artist-in-residence to win the First Prize at the Queen Elisabeth Competition. It is also the first time that Chapel’s artists win the First and Second prizes.

Winning two prizes in this unprecedented 2021 edition of the Competition is the fruit of the remarkable work carried out by the Master in Residence since 2016, Louis Lortie, and his assistant Avo Kouyoumdjian, as well as the attentive and precious efforts of a whole team that has been working with these young artists for several years to accompany them to this level of excellence. We congratulate Jonathan and Sergei for their exceptional success at the Queen Elisabeth Competition. We trust that these two prizes will facilitate the growth of their careers in the coming years.

This is a wonderful moment for all those, including their sponsors, who have worked for their development. (Bernard de Launoit, CEO)

Born in Sarrebourg in 1993, Jonathan Fournel started playing the piano at age 7. He studied in Strasbourg, Saarbrücken, as well as at the French National Conservatory of Paris. Since 2016, Jonathan is an artist in residence at the Queen Elisabeth Chapel in Belgium. Jonathan Fournel has been awarded prizes at the Gian Battista Viotti International Piano Competition (1st Prize), and the Scottish International Piano Competition (1st Prize).

Tracklist:
Disc 1 (01:12:36)
1. Belgian National Orchestra – Piano Concerto No. 2 in B-Flat Major, Op. 83: I. Allegro non troppo (18:12)
2. Belgian National Orchestra – Piano Concerto No. 2 in B-Flat Major, Op. 83: II. Allegro appassionato (08:53)
3. Belgian National Orchestra – Piano Concerto No. 2 in B-Flat Major, Op. 83: III. Andante (12:39)
4. Belgian National Orchestra – Piano Concerto No. 2 in B-Flat Major, Op. 83: IV. Allegretto grazioso (09:58)
5. Belgian National Orchestra – D'un jardin féérique (14:14)
6. Jonathan Fournel – Nocturne (08:40)

Disc 2 (01:17:35)
1. Belgian National Orchestra – Piano Concerto No. 3 in D Minor, Op. 30: I. Allegro non tanto (16:48)
2. Belgian National Orchestra – Piano Concerto No. 3 in D Minor, Op. 30: II. Intermezzo (11:19)
3. Belgian National Orchestra – Piano Concerto No. 3 in D Minor, Op. 30: III. Alla breve (15:31)
4. Dmitry Sin – Concerto without orchestra in F Minor, Op. 14: I. Allegro (07:53)
5. Dmitry Sin – Concerto without orchestra in F Minor, Op. 14: II. Scherzo. Molto commodo (05:25)
6. Dmitry Sin – Concerto without orchestra in F Minor, Op. 14: III. Quasi variazioni. Andantino de Clara Wieck (08:48)
7. Dmitry Sin – Concerto without orchestra in F Minor, Op. 14: IV. Prestissimo possibile (07:12)
8. Keigo Mukawa – Prelude and Fugue in D-Flat Major, Op. 87/15 (04:39)

Disc 3 (01:07:38)
1. Frank Braley – Piano Concerto No. 23 in A Major, KV 488: I. Allegro (11:37)
2. Frank Braley – Piano Concerto No. 23 in A Major, KV 488: II. Adagio (06:38)
3. Frank Braley – Piano Concerto No. 23 in A Major, KV 488: III. Allegro assai (08:58)
4. Frank Braley – Piano Concerto No. 27 in B-Flat Major, KV 595: I. Allegro (14:31)
5. Frank Braley – Piano Concerto No. 27 in B-Flat Major, KV 595: II. Larghetto (07:48)
6. Frank Braley – Piano Concerto No. 27 in B-Flat Major, KV 595: III. Allegro (09:56)
7. Keigo Mukawa – Suite in A Minor, RCT 5: VII. Gavotte et six doubles (08:10)

Disc 4 (01:09:32)
1. Tomoki Sakata – Piano Sonata in B Minor, S. 178 (29:48)
2. Jonathan Fournel – Variations and Fugue on a Theme by Handel, Op. 24 (26:56)
3. Jonathan Fournel – Nocturne No. 17 in B Major, Op. 62/1 (07:15)
4. Sergei Redkin – La plus que lente, L. 121 (05:33)

foobar2000 1.4.1 / Dynamic Range Meter 1.1.1
log date: 2021-06-11 11:47:30

––––––––––––––––––––––––––––––––––––––––
Analyzed: Jonathan Fournel, Keigo Mukawa, Sergei Redkin / Queen Elisabeth Competition - Piano 2021
––––––––––––––––––––––––––––––––––––––––

DR Peak RMS Duration Track
––––––––––––––––––––––––––––––––––––––––
DR13 -0.30 dB -19.69 dB 18:12 01-Brahms: Piano Concerto No. 2 in B-Flat Major, Op. 83: I. Allegro non troppo
DR13 -0.98 dB -18.89 dB 8:53 02-Brahms: Piano Concerto No. 2 in B-Flat Major, Op. 83: II. Allegro appassionato
DR15 -4.24 dB -25.01 dB 12:39 03-Brahms: Piano Concerto No. 2 in B-Flat Major, Op. 83: III. Andante
DR13 -2.63 dB -20.51 dB 9:58 04-Brahms: Piano Concerto No. 2 in B-Flat Major, Op. 83: IV. Allegretto grazioso
DR16 -0.18 dB -20.99 dB 14:15 05-Mantovani: D'un jardin féérique
DR14 -2.95 dB -23.54 dB 8:41 06-Jodlowski: Nocturne
DR13 -2.74 dB -22.37 dB 16:48 07-Rachmaninoff: Piano Concerto No. 3 in D Minor, Op. 30: I. Allegro non tanto
DR17 -0.18 dB -22.20 dB 11:19 08-Rachmaninoff: Piano Concerto No. 3 in D Minor, Op. 30: II. Intermezzo
DR15 -0.18 dB -19.83 dB 15:31 09-Rachmaninoff: Piano Concerto No. 3 in D Minor, Op. 30: III. Alla breve
DR13 -3.64 dB -21.50 dB 7:54 10-Schumann: Concerto without orchestra in F Minor, Op. 14: I. Allegro
DR13 -3.33 dB -21.89 dB 5:25 11-Schumann: Concerto without orchestra in F Minor, Op. 14: II. Scherzo. Molto commodo
DR15 -3.60 dB -25.42 dB 8:48 12-Schumann: Concerto without orchestra in F Minor, Op. 14: III. Quasi variazioni. Andantino de Clara Wieck
DR13 -3.71 dB -21.17 dB 7:12 13-Schumann: Concerto without orchestra in F Minor, Op. 14: IV. Prestissimo possibile
DR12 -2.99 dB -19.22 dB 4:40 14-Shostakovich: Prelude and Fugue in D-Flat Major, Op. 87/15
DR14 -1.53 dB -20.52 dB 11:37 15-Mozart: Piano Concerto No. 23 in A Major, KV 488: I. Allegro
DR12 -7.38 dB -24.70 dB 6:38 16-Mozart: Piano Concerto No. 23 in A Major, KV 488: II. Adagio
DR14 -0.40 dB -19.33 dB 8:59 17-Mozart: Piano Concerto No. 23 in A Major, KV 488: III. Allegro assai
DR14 -2.01 dB -20.87 dB 14:31 18-Mozart: Piano Concerto No. 27 in B-Flat Major, KV 595: I. Allegro
DR13 -3.14 dB -23.48 dB 7:49 19-Mozart: Piano Concerto No. 27 in B-Flat Major, KV 595: II. Larghetto
DR14 -1.00 dB -20.38 dB 9:57 20-Mozart: Piano Concerto No. 27 in B-Flat Major, KV 595: III. Allegro
DR13 -5.05 dB -23.26 dB 8:11 21-Rameau: Suite in A Minor, RCT 5: VII. Gavotte et six doubles
DR13 -0.28 dB -19.31 dB 29:48 22-Liszt: Piano Sonata in B Minor, S. 178
DR14 -1.08 dB -20.44 dB 26:57 23-Brahms: Variations and Fugue on a Theme by Handel, Op. 24
DR14 -6.45 dB -25.51 dB 7:16 24-Chopin: Nocturne No. 17 in B Major, Op. 62/1
DR14 -6.19 dB -25.87 dB 5:34 25-Debussy: La plus que lente, L. 121
––––––––––––––––––––––––––––––––––––––––

Number of tracks: 25
Official DR value: DR14

Samplerate: 96000 Hz
Channels: 2
Bits per sample: 24
Bitrate: 2078 kbps
Codec: FLAC
================================================================================


Thanks to the Original customer!