Tags
Language
Tags

Francis Cabrel - À l'aube revenant (2020) [Official Digital Download 24/88]

Posted By: delpotro
Francis Cabrel - À l'aube revenant (2020) [Official Digital Download 24/88]

Francis Cabrel - À l'aube revenant (2020)
FLAC (tracks) 24-bit/88,2 kHz | Front Cover & Digital Booklet | Time - 50:48 minutes | 988 MB
Pop, Chanson | Label: Chandelle Productions, Official Digital Download

À l’aube revenant est le quatorzième album studio de Francis Cabrel. Un recueil de treize nouvelles chansons tant attendues, le premier depuis In Extremis , paru il y a cinq ans.

Tracklist:
1. Les Beaux Moments Sont Trop Courts (03:10)
2. Te Ressembler (04:30)
3. Les Bougies Fondues (05:29)
4. Jusqu'aux Pôles (03:30)
5. Fort Alamour (04:30)
6. Rockstars Du Moyen Âge (03:28)
7. Peuple Des Fontaines (04:15)
8. Parlons-nous (03:44)
9. À L'aube Revenant (04:21)
10. Chanson Pour Jacques (03:39)
11. J'écoutais Sweet Baby James (02:52)
12. Difficile À Croire (03:32)
13. Ode À L'amour Courtois (03:41)

foobar2000 1.4.1 / Dynamic Range Meter 1.1.1
log date: 2021-01-19 13:20:25

––––––––––––––––––––––––––––––––––––––––
Analyzed: Francis Cabrel / À l'aube revenant
––––––––––––––––––––––––––––––––––––––––

DR Peak RMS Duration Track
––––––––––––––––––––––––––––––––––––––––
DR9 -0.15 dB -10.71 dB 3:10 01-Les beaux moments sont trop courts
DR8 -0.15 dB -8.83 dB 4:31 02-Te ressembler
DR9 -0.15 dB -10.32 dB 5:30 03-Les bougies fondues
DR9 -0.15 dB -10.99 dB 3:31 04-Jusqu'aux pôles
DR7 -0.15 dB -8.99 dB 4:30 05-Fort Alamour
DR11 -1.07 dB -14.01 dB 3:27 06-Rockstars du Moyen Âge
DR8 -0.15 dB -9.51 dB 4:16 07-Peuple des fontaines
DR9 -0.15 dB -10.09 dB 3:45 08-Parlons-nous
DR8 -0.15 dB -10.09 dB 4:21 09-À l'aube revenant
DR7 -0.15 dB -8.63 dB 3:41 10-Chanson pour Jacques
DR11 -0.15 dB -12.51 dB 2:53 11-J'écoutais Sweet Baby James
DR8 -0.15 dB -11.08 dB 3:33 12-Difficile à croire
DR12 -0.15 dB -14.07 dB 3:41 13-Ode à l'amour courtois
––––––––––––––––––––––––––––––––––––––––

Number of tracks: 13
Official DR value: DR9

Samplerate: 88200 Hz
Channels: 2
Bits per sample: 24
Bitrate: 2533 kbps
Codec: FLAC
================================================================================


Thanks to the Original customer!