Tags
Language
Tags

Franco Vassallo & Giulio Zappa - Arcano (2021) [Official Digital Download 24/96]

Posted By:
Franco Vassallo & Giulio Zappa - Arcano (2021) [Official Digital Download 24/96]

Franco Vassallo & Giulio Zappa - Arcano (2021)
FLAC (tracks) 24-bit/96 kHz | Front Cover | Time - 75:27 minutes | 1,27 GB
Classical, Vocal | Label: Prima Classic, Official Digital Download

High-ceilinged rooms with elaborate chandeliers and exquisite furniture, lavish meals and delicate wines, civilized conversation with the most interesting people of the day, and of course, music. These were the late 19th and early 20th centuries’ pleasures the Salons had to offer, and music was not a minor component of this most sophisticated social tradition which thrived in western societies up until 1914.

Francesco Paolo Tosti was no stranger to this world. By putting music to the words of exquisite poets, his fame grew so widely that in 1880 he was appointed the singing master to the British Royal Family, and even Verdi allegedly said that Tosti was the best singing teacher of his time.

On this new recital album, the majestic and accurate baritone of Franco Vassallo along with the accomplished piano playing of Giulio Zappa will take us to that magical time where poetry, beauty, and pleasure were part and parcel of the artistic experience.

Tracklist:
1. La Serenata (03:05)
2. Ideale (04:05)
3. Malia (02:49)
4. L'ultima Canzone (04:14)
5. Rosa (04:23)
6. Addio Fanciulla… (02:07)
7. Sogno (03:07)
8. Buon Capodanno (03:45)
9. Aprile (03:42)
10. Arcano (04:29)
11. È Morto Pulcinella! (05:06)
12. 'A Vucchella (02:26)
13. Due Piccoli Notturni: I. Van Li Effluvî De Le Rose Da I Verzieri (02:32)
14. Due Piccoli Notturni: II. O Falce Di Luna Calante (02:15)
15. Notte Bianca (05:00)
16. Ninna Nanna (03:24)
17. Luna D'Estate! (02:04)
18. Tristezza (03:55)
19. Il Pescatore Canta! (05:03)
20. Good-bye! (04:19)
21. Mattinata (02:53)
22. Vuol Note O Banconote? (00:40)

foobar2000 1.4.1 / Dynamic Range Meter 1.1.1
log date: 2021-04-23 11:51:18

––––––––––––––––––––––––––––––––––––––––
Analyzed: Franco Vassallo & Giulio Zappa / Arcano
––––––––––––––––––––––––––––––––––––––––

DR Peak RMS Duration Track
––––––––––––––––––––––––––––––––––––––––
DR12 -1.66 dB -16.94 dB 3:05 01-La Serenata
DR12 -1.86 dB -19.60 dB 4:06 02-Ideale
DR11 -0.76 dB -16.22 dB 2:49 03-Malia
DR11 -0.56 dB -16.14 dB 4:15 04-L'ultima Canzone
DR12 -0.74 dB -17.44 dB 4:23 05-Rosa
DR13 -1.09 dB -17.23 dB 2:07 06-Addio Fanciulla…
DR11 -1.12 dB -17.42 dB 3:07 07-Sogno
DR11 -0.59 dB -15.81 dB 3:45 08-Buon Capodanno
DR10 -0.92 dB -16.05 dB 3:42 09-Aprile
DR12 -0.89 dB -18.37 dB 4:29 10-Arcano
DR12 -1.43 dB -18.17 dB 5:06 11-È Morto Pulcinella!
DR11 -0.95 dB -17.67 dB 2:26 12-A Vucchella
DR12 -0.68 dB -19.63 dB 2:33 13-Due Piccoli Notturni: I. Van Li Effluvî De Le Rose Da I Verzieri
DR11 -2.18 dB -18.96 dB 2:15 14-Due Piccoli Notturni: II. O Falce Di Luna Calante
DR10 -0.56 dB -15.50 dB 5:00 15-Notte Bianca
DR14 -2.31 dB -22.34 dB 3:24 16-Ninna Nanna
DR10 -0.50 dB -14.33 dB 2:05 17-Luna D'Estate!
DR11 -0.65 dB -17.30 dB 3:55 18-Tristezza
DR11 -0.83 dB -16.43 dB 5:03 19-Il Pescatore Canta!
DR10 -0.50 dB -15.75 dB 4:19 20-Good-bye!
DR12 -1.63 dB -18.33 dB 2:53 21-Mattinata
DR11 -0.60 dB -18.10 dB 0:40 22-Vuol Note O Banconote?
––––––––––––––––––––––––––––––––––––––––

Number of tracks: 22
Official DR value: DR11

Samplerate: 96000 Hz
Channels: 2
Bits per sample: 24
Bitrate: 2319 kbps
Codec: FLAC
================================================================================


Thanks to the Original customer!