Tags
Language
Tags

Frank Catalano - Live at Birdland (feat. Mike Clark) (2022) [Official Digital Download]

Posted By: delpotro
Frank Catalano - Live at Birdland (feat. Mike Clark) (2022) [Official Digital Download]

Frank Catalano - Live at Birdland (feat. Mike Clark) (2022)
FLAC (tracks) 24-bit/44,1 kHz | Front Cover | Time - 73:07 minutes | 793 MB
Jazz, Hard Bop | Label: Ropeadope Records, Official Digital Download

In 2022, Legendary Saxman Frank Catalano will be touring the USA, Europe and Asia extensively as well as releasing a collection of recordings from his many performances at New York’s legendary Birdland Jazz Club. These recordings feature Herbie Hancock Headhunters alum Mike Clark and will be Frank’s 5th album on the Ropeadope label.

Frank regularly teams up with his long-time friend and Smashing Pumpkins drummer, Jimmy Chamberlin. Forbes Magazine profiled Frank for his performances with The Violent Femmes including Riot Fest and Brooklyn Steel.

A documentary was made about Frank by Belgian director Colin Donner. The film is titled “Sugar Jazz” and will premiere at the Tokyo Lift off Film Festival.

“Tokyo #9” debuted at #1 on the Billboard Traditional Jazz Charts, has garnered millions of streams and topped the Spotify and Apple Music playlists. “Love Supreme Collective” debuted at #1 on the iTunes Jazz Charts and honors John Coltrane. Frank recorded “Bye, Bye, Blackbird” with David Sanborn and teamed up with Jimmy Chamberlin of The Smashing Pumpkins to release “God’s Gonna Cut You Down”. Frank’s Savoy/Columbia recording “Bang!” debuted at #12 on the Billboard Jazz Charts, while his recording, “Mighty Burner” was on the Billboard Charts for 20 straight weeks.

When Frank was 18, he signed to Delmark Records and did a string of critically acclaimed recordings with Randy Brecker, Von Freeman, Ira Sullivan, Willie Pickens and Paul Wertico amongst others. Frank’s co-led album with Von Freeman, “You Talking To Me,” has become a cult classic. Catalano is the only known saxman to have performed with Miles Davis, Charles Earland, Elvin Jones, Junior Wells, Randy Brecker, Stan Getz, Betty Carter, Tito Puente, Tony Bennett, Les Claypool, and Louis Bellson while still in high school!

Frank has been profiled by countless media including: The New York Times, Forbes, Downbeat, CMJ, JazzIz, Jazz Times, NPR, PBS, Chicago Tribune, Huffington Post, etc. As a sideman, Catalano has been heard by millions of people thanks to his collaborations with Jennifer Lopez, Beyoncé, Maurice Joshua, Destiny’s Child, John Legend, Tony Bennett, Seal, and others.

Frank has received his fair share of accolades, recently winning an IMA award at Lincoln Center and being inducted into the Fox Valley Arts Hall of Fame. He has appeared on 3 Grammy‐winning and 11 Grammy‐nominated recordings, plus in 2007 he received a Tech Grammy Award as part of the Yamaha Corporation for his numerous patents and developments. He was also the youngest saxophonist to be voted into the Downbeat Critics Poll at age 19.

No stranger to adversity, Frank cut off his right middle finger in an automobile accident. After several surgeries and much effort, Catalano relearned his signature technique, making him one of the most in‐demand musicians today. He regularly donates his musical services to the Susan G. Komen Breast Cancer Foundation, Peoples Music School, and Off The Street Club.

Frank has written a book series for publisher Hal Leonard, called “Modern Saxophone Techniques” and his song “Mighty Burner” is featured in “The Real Book Volume 6”. He also endorses Yamaha Saxophones, JodyJazz mouthpieces, D’Addario Reeds, and Rovner Ligatures.

Tracklist:
1. Cold Duck Time (Live) [feat. Mike Clark] (12:36)
2. Birdland At Midnight (Live) [feat. Mike Clark] (11:41)
3. He Never Sleeps (Live) [feat. Mike Clark] (06:37)
4. Love Will Tear Us Apart (Live) [feat. Mike Clark] (08:28)
5. Mister MC (Live) [feat. Mike Clark] (13:25)
6. Things Ain't What They Used To Be (Live) [feat. Mike Clark] (10:01)
7. Mundo Espiritual (Live) [feat. Mike Clark] (10:16)

foobar2000 1.4.1 / Dynamic Range Meter 1.1.1
log date: 2022-07-04 18:28:58

––––––––––––––––––––––––––––––––––––––––
Analyzed: Frank Catalano feat. Mike Clark / Live at Birdland
––––––––––––––––––––––––––––––––––––––––

DR Peak RMS Duration Track
––––––––––––––––––––––––––––––––––––––––
DR10 -0.61 dB -13.14 dB 12:37 01-Cold Duck Time (Live)
DR11 -0.54 dB -13.46 dB 11:42 02-Birdland at Midnight (Live)
DR13 -0.67 dB -16.88 dB 6:37 03-He Never Sleeps (Live)
DR10 -0.54 dB -12.80 dB 8:29 04-Love Will Tear Us Apart (Live)
DR10 -0.53 dB -12.91 dB 13:26 05-Mister MC (Live)
DR11 -0.60 dB -14.10 dB 10:01 06-Things Ain't What They Used to Be (Live)
DR10 -0.15 dB -12.62 dB 10:16 07-Mundo Espiritual (Live)
––––––––––––––––––––––––––––––––––––––––

Number of tracks: 7
Official DR value: DR11

Samplerate: 44100 Hz
Channels: 2
Bits per sample: 24
Bitrate: 1568 kbps
Codec: FLAC
================================================================================


Thanks to the Original customer!