Tags
Language
Tags

Fruit Bats - Sometimes a Cloud Is Just a Cloud: Slow Growers, Sleeper Hits and Lost Songs (2001–2021) (2022) [24/48]

Posted By: delpotro
Fruit Bats - Sometimes a Cloud Is Just a Cloud: Slow Growers, Sleeper Hits and Lost Songs (2001–2021) (2022) [24/48]

Fruit Bats - Sometimes a Cloud Is Just a Cloud: Slow Growers, Sleeper Hits and Lost Songs (2001–2021) (2022)
FLAC (tracks) 24-bit/48 kHz | Front Cover | Time - 40:46 minutes | 456 MB
Indie Folk | Label: Merge Records, Official Digital Download

Eric D. Johnson, the creative force behind Fruit Bats, doesn’t spend a lot of time looking in the rearview mirror. “Maybe it speaks to some Midwest thing,” he says. “Don’t be overly reflective or navel-gazing. And as a songwriter, you always want to be looking forward, not backward.” But with the 20th anniversary of his first Fruit Bats release (2001’s Echolocation) on his mind, it seemed as good a time as any to take stock of his work—and he’s doing so in the form of Sometimes a Cloud Is Just a Cloud: Slow Growers, Sleeper Hits and Lost Songs (2001–2021), a two-disc collection that tracks the history of Fruit Bats from its earliest days to right now. Thoughtfully compiled by Johnson himself, this set is split in two distinct halves.

Tracklist:
1. Without Any Airs (02:38)
2. Barely Living Room (Demo) (03:14)
3. Baby Bluebird (Waltz Demo) (02:29)
4. Hot Dogs (02:29)
5. WACS (03:28)
6. When the Stars Are Out (03:26)
7. Aces (02:14)
8. The Joker (03:38)
9. Feather Bed (Demo) (02:48)
10. Goodnight Sun & Hello Moon (05:54)
11. Rainbow Sign (4-Track Demo) (03:59)
12. The Old Black Hole (4-Track Demo) (04:26)

foobar2000 1.4.1 / Dynamic Range Meter 1.1.1
log date: 2022-01-27 17:18:22

––––––––––––––––––––––––––––––––––––––––
Analyzed: Fruit Bats / Sometimes a Cloud Is Just a Cloud: Slow Growers, Sleeper Hits and Lost Songs (2001–2021)
––––––––––––––––––––––––––––––––––––––––

DR Peak RMS Duration Track
––––––––––––––––––––––––––––––––––––––––
DR8 -0.61 dB -9.70 dB 2:38 01-Without Any Airs
DR9 -0.61 dB -12.41 dB 3:14 02-Barely Living Room (Demo)
DR9 -0.61 dB -11.50 dB 2:30 03-Baby Bluebird (Waltz Demo)
DR11 -0.61 dB -13.64 dB 2:29 04-Hot Dogs
DR7 -0.61 dB -9.99 dB 3:28 05-WACS
DR7 -0.61 dB -10.30 dB 3:26 06-When the Stars Are Out
DR8 -0.61 dB -10.52 dB 2:15 07-Aces
DR11 -0.61 dB -14.06 dB 3:38 08-The Joker
DR10 -0.61 dB -12.78 dB 2:48 09-Feather Bed (Demo)
DR8 -0.61 dB -11.07 dB 5:54 10-Goodnight Sun & Hello Moon
DR11 -0.68 dB -12.85 dB 3:59 11-Rainbow Sign (4-Track Demo)
DR11 -1.76 dB -14.04 dB 4:26 12-The Old Black Hole (4-Track Demo)
––––––––––––––––––––––––––––––––––––––––

Number of tracks: 12
Official DR value: DR9

Samplerate: 48000 Hz
Channels: 2
Bits per sample: 24
Bitrate: 1459 kbps
Codec: FLAC
================================================================================


Thanks to the Original customer!