Jerry Garcia Band - GarciaLive Volumes 1-9 (2013-2017) [Official Digital Download] COMBINED RE-UP

Posted By: HDV
Jerry Garcia Band - GarciaLive Volumes 1-9 (2013-2017) [Official Digital Download] COMBINED RE-UP

Jerry Garcia Band - GarciaLive Volumes 1-9 (2013-2017)
FLAC (tracks) 24-bit/88,2 kHz | Time - 1272:57 minutes | ~ 24 GB
Studio Master, Official Digital Download | Artwork: Front cover(s)

Jerome John Garcia was an American singer-songwriter and guitarist, best known for his work as the lead guitarist and as a vocalist with the band the Grateful Dead. One of its founders, Garcia performed with the Grateful Dead for their entire thirty-year career (1965–1995). Garcia also founded and participated in a variety of side projects, including the Jerry Garcia Band, the Saunders–Garcia Band (with longtime friend Merl Saunders), Old and in the Way, the Garcia/Grisman acoustic duo, Legion of Mary, and the New Riders of the Purple Sage. This Hi-Res collection of the recently launched archival series presents the Jerry Garcia Band's hystorical performances during '70-'90.


Jerry Garcia Band - GarciaLive Volumes 1-9 (2013-2017) [Official Digital Download] COMBINED RE-UP

Jerry Garcia Band - GarciaLive: Volume One - Capitol Theatre - March 1, 1980 (2013)
FLAC (tracks) 24 bit/44,1 kHz | Time - 157:27 minutes | 1,76 GB
Studio Master, Official Digital Download | Artwork: Digital booklet

Guitarist, singer, and songwriter Jerry Garcia was best known as a founding member of the Grateful Dead, the rock band for which he served as de facto leader for 30 years, 1965-1995. Concurrently for much of that time, he also led his own Jerry Garcia Band (JGB), and he performed and recorded in a variety of configurations and a variety of styles, particularly styles of folk and country music, sometimes switching to banjo or pedal steel guitar for the purpose…

The first release from the newly-launched Garcia Live series features a recording from the historic Capitol Theatre in Passaic, New Jersey on March 1, 1980. The band performed an early and a late show on this evening, as was common at the time. The shows were originally multi-tracked on a 24-track mobile rig for WNEW's broadcast of the early show.

The band, which included Garcia on guitar and vocals, partner in crime John Kahn on bass, Ozzie Ahlers on Keys and Johnny de Foncesca on drums at the time, was wrapping up a three-week East Coast run with the performances on this evening. Highlights including a take on the Jimmie Rodgers penned rave-up, "That's All Right," an early show encore of "Deal" and a rollicking version of "That's What Love Will Make You Do" show Jerry and the band loose and fluid at the end of the tour.

Tracklist

Disc 1 - Early Show:
01 - Sugaree
02 - Catfish John
03 - How Sweet It Is (To Be Loved By You)
04 - Simple Twist of Fate
05 - Sitting In Limbo
06 - That’s All Right
07 - Deal

Disc 2 - Late Show:
01 - Mission In The Rain
02 - That's What Love Will Make You Do
03 - Russian Lullaby
04 - The Harder They Come
05 - Tiger Rose (featuring Robert Hunter)
06 - Promontory Rider (featuring Robert Hunter)
07 - Midnight Moonlight
08 - Dear Prudence

Analyzed: Jerry Garcia Band / Garcia Live Vol. 1 March 1st, 1980 Capitol Theatre
––––––––––––––––––––––––––––––––––––––––

DR Peak RMS Duration Track
––––––––––––––––––––––––––––––––––––––––
DR14 -0.46 dB -16.82 dB 14:33 1/7-Sugaree
DR14 -0.97 dB -18.19 dB 9:56 2/7-Catfish John
DR15 -0.30 dB -18.38 dB 9:06 3/7-How Sweet It Is (To Be Loved By You)
DR16 -0.93 dB -21.00 dB 16:20 4/7-Simple Twist of Fate
DR15 -0.47 dB -19.71 dB 12:41 5/7-Sitting In Limbo
DR14 -0.42 dB -16.84 dB 8:09 6/7-That’s All Right
DR13 -0.55 dB -16.67 dB 8:13 7/7-Deal
DR14 -0.40 dB -16.89 dB 12:47 1/8-Mission In The Rain
DR14 -0.48 dB -16.71 dB 9:00 2/8-That's What Love Will Make You Do
DR16 -0.46 dB -19.69 dB 15:32 3/8-Russian Lullaby
DR15 -0.46 dB -18.57 dB 11:46 4/8-The Harder They Come
DR15 -0.71 dB -18.30 dB 4:10 5/8-Tiger Rose (featuring Robert Hunter)
DR14 -0.11 dB -17.71 dB 6:07 6/8-Promontory Rider (featuring Robert Hunter)
DR14 -0.13 dB -16.40 dB 8:43 7/8-Midnight Moonlight
DR15 -0.19 dB -17.39 dB 10:24 8/8-Dear Prudence
––––––––––––––––––––––––––––––––––––––––

Number of tracks: 15
Official DR value: DR14

Samplerate: 44100 Hz
Channels: 2
Bits per sample: 24
Bitrate: 1498 kbps
Codec: FLAC
================================================================================



Jerry Garcia Band - GarciaLive Volumes 1-9 (2013-2017) [Official Digital Download] COMBINED RE-UP

Jerry Garcia Band - GarciaLive: Volume Two - Greek Theatre, CA. - August 5, 1990 (2013)
FLAC (tracks) 24 bit/176,4 kHz | Time - 119:04 minutes | 4 GB
Studio Master, Official Digital Download | Artwork: Front cover

This second release of the newly initiated GarciaLive series captures the classic latter-era lineup of the Jerry Garcia Band in the very familiar surroundings of the Greek Theatre in Berkeley, CA. This performance at The Greek features a guest appearance by banjo virtuoso Bela Fleck to kick off the second set with a fiery rendition of “Midnight Moonlight” and an otherworldly adventure on the Jimmy Cliff classic, “The Harder They Come.” Other highlights include JGB classics like “Stop That Train”, “Run For The Roses”, and “Tangled Up In Blue”, this show is essential slow burner for time spent on the back porch this summer.

Tracklist:

CD1 #01 - How Sweet It Is (To Be Loved By You)
CD1 #02 - Stop That Train
CD1 #03 - Forever Young
CD1 #04 - Run For The Roses
CD1 #05 - That's What Love Will Make You Do
CD1 #06 - My Sisters and Brothers
CD1 #07 - Tears Of Rage
CD1 #08 - Deal
CD2 #01 - Midnight Moonlight *
CD2 #02 - The Harder They Come *
CD2 #03 - And It Stoned Me
CD2 #04 - Waiting For A Miracle
CD2 #05 - Evangeline
CD2 #06 - Think
CD2 #07 - That Lucky Old Sun
CD2 #08 - Tangled Up In Blue

* Bela Fleck on banjo

Analyzed: Jerry Garcia Band / 1990/08/05 I Berkeley, CA
––––––––––––––––––––––––––––––––––––––––

DR Peak RMS Duration Track
––––––––––––––––––––––––––––––––––––––––
DR10 -0.60 dB -12.93 dB 7:34 01-How Sweet It Is (To Be Loved By You)
DR12 -0.60 dB -14.46 dB 6:47 02-Stop That Train
DR9 -0.60 dB -13.58 dB 7:20 03-Forever Young
DR10 -0.60 dB -12.65 dB 5:50 04-Run For The Roses
DR10 -0.60 dB -12.44 dB 8:06 05-That's What Love Will Make You Do
DR11 -0.60 dB -14.22 dB 4:15 06-My Sisters and Brothers
DR11 -0.60 dB -15.16 dB 8:16 07-Tears Of Rage
DR9 -0.60 dB -11.17 dB 8:34 08-Deal
––––––––––––––––––––––––––––––––––––––––

Number of tracks: 8
Official DR value: DR10

Samplerate: 176400 Hz
Channels: 2
Bits per sample: 24
Bitrate: 4775 kbps
Codec: FLAC
================================================================================

––––––––––––––––––––––––––––––––––––––––
Analyzed: Jerry Garcia Band / 1990/08/05 II Berkeley, CA
––––––––––––––––––––––––––––––––––––––––

DR Peak RMS Duration Track
––––––––––––––––––––––––––––––––––––––––
DR7 -0.60 dB -10.09 dB 7:28 01-Midnight Moonlight
DR8 -0.60 dB -10.67 dB 10:46 02-The Harder They Come
DR10 -0.59 dB -13.34 dB 6:21 03-And It Stoned Me
DR10 -0.60 dB -12.66 dB 6:43 04-Waiting For A Miracle
DR9 -0.60 dB -11.28 dB 4:22 05-Evangeline
DR10 -0.70 dB -11.85 dB 7:01 06-Think
DR12 -1.11 dB -17.02 dB 8:22 07-That Lucky Old Sun
DR9 -0.38 dB -11.63 dB 11:19 08-Tangled Up In Blue
––––––––––––––––––––––––––––––––––––––––

Number of tracks: 8
Official DR value: DR9

Samplerate: 176400 Hz
Channels: 2
Bits per sample: 24
Bitrate: 4740 kbps
Codec: FLAC
================================================================================



Jerry Garcia Band - GarciaLive Volumes 1-9 (2013-2017) [Official Digital Download] COMBINED RE-UP

Jerry Garcia: GarciaLive - Volume Three: Legion Of Mary - December 14-15 1974, Northwest Tour (2013)
FLAC (tracks) 24 bit/88,2 kHz | Time - 180:08 minutes | 3,53 GB
Studio Master, Official Digital Download | Artwork: Front cover

Another installment in the GarciaLive series. The 3-CD set celebrates one of Jerry’s most experimental, improvisational and revered projects: Legion of Mary and presents highlights from two winter 1974 performances captured during what is thought to be Legion of Mary’s first tour featuring the core lineup of Garcia, Merl Saunders, John Kahn, Martin Fierro and Ron Tutt. The music from these shows ranges from tracks like the hard-driving “Mystery Train” to a funky cover of Stevie Wonder’s “Boogie On Reggae Woman.” Other highlights from the album include “How Sweet It Is (To Be Loved),” “The Night they Drove Old Dixie Down” and “Roadrunner”.

Tracklist:

CD1 #01 - Boogie On Reggae Woman
CD1 #02 - The Night They Drove Old Dixie Down
CD1 #03 - Freedom Jazz Dance
CD1 #04 - Mystery Train
CD1 #05 - How Sweet It Is (To Be Loved By You)

CD2 #01 - You Can Leave Your Hat On
CD2 #02 - Neighbor, Neighbor
CD2 #03 - The Night They Drove Old Dixie Down

CD3 #01 - It's No Use
CD3 #02 - Valdez In The Country
CD3 #03 - I Second That Emotion
CD3 #04 - Wondering Why
CD3 #05 - Roadrunner

SET ONE (Disc 1) from 12/14/74 Paramount Theatre, Portland, OR.
SET TWO (Discs 2-3) from 12/15/74 EMU Ballroom, Eugene, OR.

Legion of Mary:
Jerry Garcia - guitar and vocals
Merl Saunders - organ, keys, vocals
John Kahn - bass
Martin Fierro - saxophone
Ron Tutt - drums

Analyzed: Legion Of Mary / GarciaLive Volume 3: December 14-15, 1974 Northwest Tour
––––––––––––––––––––––––––––––––––––––––

DR Peak RMS Duration Track
––––––––––––––––––––––––––––––––––––––––
DR10 -0.66 dB -12.75 dB 18:06 01-Boogie On Reggae Woman
DR11 -0.69 dB -16.22 dB 7:56 02-The Night They Drove Old Dixie Down
DR13 -1.44 dB -16.61 dB 13:40 03-Freedom Jazz Dance
DR9 -0.66 dB -13.13 dB 12:30 04-Mystery Train
DR9 -0.66 dB -12.25 dB 11:06 05-How Sweet It Is (To Be Loved By You)
DR10 -0.69 dB -14.04 dB 16:29 01-You Can Leave Your Hat On
DR10 -1.18 dB -12.83 dB 12:30 02-Neighbor, Neighbor
DR11 -0.70 dB -14.94 dB 8:25 03-The Night They Drove Old Dixie Down
DR11 -0.69 dB -14.76 dB 13:28 01-It's No Use
DR13 -1.57 dB -17.44 dB 13:23 02-Valdez In The Country
DR12 -0.69 dB -14.42 dB 14:53 03-I Second That Emotion
DR16 -1.50 dB -21.11 dB 24:53 04-Wondering Why
DR11 -0.69 dB -13.26 dB 12:48 05-Roadrunner
––––––––––––––––––––––––––––––––––––––––

Number of tracks: 13
Official DR value: DR11

Samplerate: 88200 Hz
Channels: 2
Bits per sample: 24
Bitrate: 2749 kbps
Codec: FLAC
================================================================================


Thanks to the Original customer!

Jerry Garcia Band - GarciaLive Volumes 1-9 (2013-2017) [Official Digital Download] COMBINED RE-UP

Jerry Garcia Band - GarciaLive: Volume Four - Veteran's Hall Sebastopol, CA. - March 22, 1978 (2014)
FLAC (tracks) 24 bit/88,2 kHz | Time - 124:37 minutes | 2,44 GB
Studio Master, Official Digital Download | Artwork: Front cover

2 CD Set featuring over 2 hours of previously unreleased music mastered from original soundboard recordings. The fourth installment of the recently launched archival series presents the Jerry Garcia Band's performance from March 22nd, 1978 at Veteran's Hall in Sebastopol, California. This incarnation of the Jerry Garcia Band features Garcia and longtime collaborator John Kahn plus drummer Buzz Buchanan and Grateful Dead bandmates Keith and Donna Jean Godchaux. Grammy award winning vocalist Maria Muldaur ('Midnight at the Oasis') rounds out the line-up.

GarciaLive Volume Four: March 22nd, 1978 Veteran's Hall highlights an oft-requested Jerry Garcia Band line-up featuring Jerry, John Kahn, Buzz Buchanan, Maria Muldaur and Keith & Donna Godchaux. Falling just days after the conclusion of the Garcia band's tour and days before the release of Cats Under The Stars, this intimate performance in Sebastopol, CA showcases a particularly relaxed, vibrant and soulful Garcia Band evident on moving versions of "Mission in the Rain," "The Night They Drove Old Dixie Down," and the gospel standard "I'll Be With Thee." Rocking takes on "Mystery Train," "I Second That Emotion" and "Midnight Moonlight" bring the surging tempos that offer beautiful balance to the performance and showcase the band's tremendous musical range. The performance also marks the first guest appearance from future Jerry Garcia Band keyboardist Ozzie Ahlers.

Caveat: GarciaLive Volume Four celebrates an era of the Jerry Garcia Band known for its sweet, soulful and expansive performances. This exemplary performance, as was common for the time, extended beyond the bounds of the original ¼” analog reels missing the final few measures of “Midnight Moonlight,” but is otherwise complete. Listen comfortably with our promise that every effort was made to produce this performance for release in a manner which honors the spirit of its creation.

Tracklist:

CD1 #01 - How Sweet It Is (To Be Loved By You)
CD1 #02 - Catfish John
CD1 #03 - Simple Twist Of Fate
CD1 #04 - I Second That Emotion
CD1 #05 - The Night They Drove Old Dixie Down

CD2 #06 - The Harder They Come
CD2 #07 - Mission In The Rain
CD2 #08 - Cats Under The Stars
CD2 #09 - Gomorrah
CD2 #10 - Mystery Train
CD2 #11 - Love In The Afternoon
CD2 #12 - I'll Be With Thee
CD2 #13 - Midnight Moonlight

Musicians:
Jerry Garcia - guitar, vocals
John Kahn - bass
Keith Godchaux - keyboards
Buzz Buchanan - drums
Donna Jean Godchaux - background vocals
Maria Muldaur - background vocals

Analyzed: Jerry Garcia / 1978/03/22 GarciaLive, Vol.4 Veteran's Hall Sebastopol, CA
––––––––––––––––––––––––––––––––––––––––

DR Peak RMS Duration Track
––––––––––––––––––––––––––––––––––––––––
DR13 -0.58 dB -15.48 dB 9:52 01-How Sweet It Is (To Be Loved By You) [Live]
DR13 -0.59 dB -17.35 dB 9:16 02-Catfish John (Live)
DR14 -0.58 dB -19.07 dB 10:54 03-Simple Twist Of Fate (Live)
DR13 -0.58 dB -16.15 dB 10:29 04-I Second That Emotion (Live)
DR12 -0.58 dB -17.80 dB 10:26 05-The Night They Drove Old Dixie Down (Live)
DR13 -0.67 dB -17.10 dB 12:14 06-The Harder They Come (Live)
DR13 -0.59 dB -17.63 dB 11:21 07-Mission In The Rain (Live)
DR13 -0.58 dB -16.67 dB 8:04 08-Cats Under The Stars (Live)
DR15 -0.59 dB -20.20 dB 6:39 09-Gomorrah (Live)
DR12 -0.68 dB -15.71 dB 8:57 10-Mystery Train (Live)
DR14 -0.68 dB -18.48 dB 10:11 11-Love In The Afternoon (Live)
DR14 -0.59 dB -17.97 dB 5:16 12-I'll Be With Thee (Live)
DR13 -0.57 dB -15.62 dB 10:59 13-Midnight Moonlight (Live)
––––––––––––––––––––––––––––––––––––––––

Number of tracks: 13
Official DR value: DR13

Samplerate: 88200 Hz
Channels: 2
Bits per sample: 24
Bitrate: 2658 kbps
Codec: FLAC
================================================================================



Jerry Garcia Band - GarciaLive Volumes 1-9 (2013-2017) [Official Digital Download] COMBINED RE-UP

Jerry Garcia Band - GarciaLive: Volume Five - Keystone, Berkeley, CA. - December 31st, 1975 (2014)
FLAC (tracks) 24 bit/88,2 kHz | Time - 123:29 minutes | 2,34 GB
Studio Master, Official Digital Download | Artwork: Digital booklet

GarciaLive Volume Five: December 31st, 1975 Keystone Berkeley celebrates the Jerry Garcia Band's three set performance at the storied Keystone Berkeley. While Garcia celebrated many new years on stage with the Grateful Dead, this performance holds the distinction as the Jerry Garcia Band's lone New Year's Eve appearance. Fresh off a Winter tour which yielded the transcendent performances captured on 2009's Let It Rock live release, Garcia is joined for this performance by mainstay John Kahn on bass, Sly and the Family Stone drummer Greg Errico and legendary rock pianist Nicky Hopkins. Hopkins' accolades are almost too numerous to list, but include a seemingly endless list of collaborations with The Beatles, The Who, and the Rolling Stones, among many others. And what New Year's Eve celebration would be complete without a few friends? Grateful Dead bandmates Bob Weir and Mickey Hart along with Kingfish's Matthew Kelly join the fold for a vibrant evening of music.

Tracklist:

01 - Let It Rock
02 - Mother Nature's Son
03 - It Ain't No Use
04 - God Save The Queen
05 - They Love Each Other
06 - Pig's Boogie
07 - New Year's Countdown
08 - How Sweet It Is (To Be Loved By You)
09 - Catfish John
10 - Mystery Train ->
11 - Drums -> New Year's Jam ->
12 - Mystery Train
13 - Tore Up Over You
14 - Tuning
15 - C.C. Rider
16 - (I'm A) Road Runner

Analyzed: Jerry Garcia / 1975/12/31 GarciaLive Volume 5 Keystone Berkeley
––––––––––––––––––––––––––––––––––––––––

DR Peak RMS Duration Track
––––––––––––––––––––––––––––––––––––––––
DR12 -0.45 dB -15.14 dB 13:02 01-Let It Rock
DR15 -0.19 dB -19.66 dB 2:00 02-Mother Nature's Son
DR12 -0.43 dB -15.56 dB 11:36 03-It Ain't No Use
DR13 -2.37 dB -20.26 dB 0:48 04-God Save The Queen
DR11 -0.16 dB -13.90 dB 7:49 05-They Love Each Other
DR11 -0.17 dB -14.14 dB 10:41 06-Pig's Boogie
DR12 -0.19 dB -16.21 dB 1:53 07-New Year's Countdown
DR10 -0.32 dB -13.32 dB 8:25 08-How Sweet It Is (To Be Loved By You)
DR13 -0.39 dB -16.91 dB 15:29 09-Catfish John
DR14 -0.19 dB -16.40 dB 7:08 10-Mystery Train ->
DR12 -0.18 dB -14.82 dB 13:14 11-Drums -> New Year's Jam ->
DR10 -0.18 dB -13.06 dB 1:48 12-Mystery Train
DR10 -0.18 dB -12.10 dB 10:46 13-Tore Up Over You
DR12 -2.30 dB -21.48 dB 0:48 14-Tuning
DR11 -0.48 dB -13.39 dB 8:20 15-C.C. Rider
DR10 -0.17 dB -12.51 dB 9:43 16-(I'm A) Road Runner
––––––––––––––––––––––––––––––––––––––––

Number of tracks: 16
Official DR value: DR12

Samplerate: 88200 Hz
Channels: 2
Bits per sample: 24
Bitrate: 2627 kbps
Codec: FLAC
================================================================================



Jerry Garcia Band - GarciaLive Volumes 1-9 (2013-2017) [Official Digital Download] COMBINED RE-UP

Jerry Garcia & Merl Saunders - GarciaLive: Volume Six - Lion’s Share, San Anselmo, CA. - July 5, 1973 (2016)
FLAC (tracks) 24 bit/44,1 kHz | Time - 169:16 minutes | 1,92 GB
Studio Master, Official Digital Download | Artwork: Front cover

Volume Six showcases Jerry Garcia and Merl Saunders’ July 5th, 1973 performance at the Lion’s Share in San Anselmo, CA. Recorded by Betty Cantor-Jackson just five days prior to the seminal performances celebrated on the Live at the Keystone series, GarciaLive Volume Six highlights a particularly adventurous evening at the Lion’s Share, a 200 capacity club known for its vibrant music scene which drew regulars like Janis Joplin, Phil Lesh, Van Morrison, and many others. The club’s intimacy can be felt throughout the recordings as the band, rounded out by John Kahn on bass and drummer Bill Vitt, frequently launch into extended improvisations fueled by the exchange of energy with the audience. The blistering “She’s Got Charisma” -> “That’s Alright, Mama”, which clocks in at over 31 minutes long, “starts off innocently in familiar blues territory, but very quickly deconstructs into fragmentation and exploration, defying both gravity and expectation at the same time” as writer Benjy Eisen eloquently describes in the releases’ liner note essay. The presence of an unidentified guest on trumpet during the band’s second set adds to the freedom and looseness found within the performance. The guest trumpeter is felt most during extended takes on “My Funny Valentine” and “Merl’s Tune,” both easy highlights of the entire evening.

Tracklist:

CD1 #01 - After Midnight
CD1 #02 - Someday Baby
CD1 #03 - She's Got Charisma
CD1 #04 - That's Alright, Mama
CD2 #01 - The System
CD2 #02 - The Night They Drove Old Dixie Down
CD2 #03 - I Second That Emotion
CD2 #04 - My Funny Valentine
CD2 #05 - Finders Keepers
CD3 #01 - Money Honey
CD3 #02 - Like a Road
CD3 #03 - Merl's Tune
CD3 #04 - Lion's Share Jam
CD3 #05 - How Sweet It Is (To Be Loved by You)

Musicians:
Jerry Garcia - guitar, vocals
Merl Saunders - keyboards, vocals
John Kahn - bass
Bill Vitt - drums

Analyzed: Jerry Garcia and Merl Saunders / GarciaLive Volume Six: July 5, 1973 Lion’s Share, San Anselmo, CA
––––––––––––––––––––––––––––––––––––––––

DR Peak RMS Duration Track
––––––––––––––––––––––––––––––––––––––––
DR10 -0.15 dB -12.76 dB 10:34 01-After Midnight
DR10 -0.35 dB -13.31 dB 9:14 02-Someday Baby
DR11 -0.19 dB -15.15 dB 18:40 03-She's Got Charisma
DR8 -0.31 dB -10.34 dB 13:16 04-That's Alright, Mama
DR9 -0.31 dB -12.07 dB 18:44 01-The System
DR10 -0.28 dB -13.11 dB 5:58 02-The Night They Drove Old Dixie Down
DR9 -0.19 dB -10.83 dB 13:29 03-I Second That Emotion
DR11 -0.34 dB -14.35 dB 19:16 04-My Funny Valentine
DR9 -0.25 dB -11.64 dB 9:29 05-Finders Keepers
DR10 -0.28 dB -12.21 dB 8:37 01-Money Honey
DR10 -0.34 dB -14.93 dB 9:21 02-Like a Road
DR11 -0.32 dB -14.28 dB 16:44 03-Merl's Tune
DR11 -0.27 dB -13.62 dB 9:51 04-Lion's Share Jam
DR11 -0.35 dB -14.38 dB 6:04 05-How Sweet It Is (To Be Loved by You)
––––––––––––––––––––––––––––––––––––––––

Number of tracks: 14
Official DR value: DR10

Samplerate: 44100 Hz
Channels: 2
Bits per sample: 24
Bitrate: 1488 kbps
Codec: FLAC
================================================================================



Jerry Garcia Band - GarciaLive Volumes 1-9 (2013-2017) [Official Digital Download] COMBINED RE-UP

Jerry Garcia Band - GarciaLive: Volume Seven - Sophie's, Palo Alto, CA - November 8, 1976 (2016)
FLAC (tracks) 24 bit/88,2 kHz | Time - 149:35 minutes | 2,95 GB
Studio Master, Official Digital Download | Artwork: Front cover

Volume Seven showcases the Jerry Garcia Band's November 8th, 1976 performance at Sophie’s in Palo Alto, California. Recorded by Betty Cantor-Jackson, the original master reels were only recently re-discovered, along with a few other reels dubbed the “Houseboat Tapes”, and have been remastered for this release. It was the year of this recording that Donna Jean and Keith Godchaux first joined up with the Jerry Garcia Band. Their addition, along with Ron Tutt on drums and bassist John Kahn, helped form what would be one of the most durable lineups of the Garcia Band. In fact, earlier that year Garcia commented "I haven’t been as happy with any little performing group since Old And In The Way in terms of feeling ‘this is really harmonious, this is what I want to hear.’” That harmonious vibe is especially present as well. Throughout the course of the evening, the band deftly melds gospel, rock, soul, and reggae to form their quintessential mid-70’s sound. As one astute critic pointed out, “More than any other Garcia band this one allows him room to run through all his guitar styles, often within a single song.” From the opening notes of “The Way You Do The Things You Do”, the band lock into a relaxed, but confident groove with Kahn & Tutt’s deep pocket providing the foundation for Jerry & Keith’s melodic exploration rounded out by Donna Jean’s soulful harmonies. The Hunter/Garcia penned “Mission in the Rain” and Dylan’s “Knockin’ on Heaven’s Door” are particularly poignant and soulful while songs like “Midnight Moonlight”, “Tore Up Over You” and “Ride Mighty High” provide the sparks bringing balance to the evening. A 22+ minute “Don’t Let Go” stands out not only for its length, but for its exercise in dynamics which further showcases Garcia’s comfort not only with the band, but the freedom found in playing smaller rooms tailor-made for they type of music he was looking to create.

Tracklist:

CD1 #01 - The Way You Do The Things You Do
CD1 #02 - Knockin' On Heaven's Door
CD1 #03 - After Midnight
CD1 #04 - Who Was John
CD1 #05 - Mission In The Rain
CD1 #06 - Stir It Up
CD2 #01 - Midnight Moonlight
CD2 #02 - Tore Up Over You
CD2 #03 - Friend Of The Devil
CD2 #04 - Don't Let Go
CD2 #05 - Strange Man
CD2 #06 - Stop That Train
CD2 #07 - Ride Mighty High

Musicians:
Jerry Garcia - guitar, vocals
Keith Godchaux - keyboards
Donna Jean Godchaux - vocals
John Kahn - bass
Ron Tutt - drums

Analyzed: Jerry Garcia Band / GarciaLive Volume Seven: November 8, 1976 Sophie's, Palo Alto, CA
––––––––––––––––––––––––––––––––––––––––

DR Peak RMS Duration Track
––––––––––––––––––––––––––––––––––––––––
DR11 0.00 dB -13.71 dB 9:00 01-The Way You Do The Things You Do
DR15 0.00 dB -18.41 dB 14:14 02-Knockin' On Heaven's Door
DR13 0.00 dB -15.53 dB 13:50 03-After Midnight
DR13 0.00 dB -16.65 dB 14:28 04-Who Was John
DR12 0.00 dB -15.52 dB 8:21 05-Mission In The Rain
DR14 0.00 dB -16.78 dB 12:21 06-Stir It Up
DR11 0.00 dB -13.98 dB 9:25 01-Midnight Moonlight
DR10 0.00 dB -13.23 dB 10:43 02-Tore Up Over You
DR12 0.00 dB -16.42 dB 7:54 03-Friend Of The Devil
DR12 0.00 dB -16.82 dB 22:23 04-Don't Let Go
DR11 0.00 dB -15.33 dB 6:10 05-Strange Man
DR16 0.00 dB -19.36 dB 11:44 06-Stop That Train
DR11 0.00 dB -13.85 dB 9:02 07-Ride Mighty High
––––––––––––––––––––––––––––––––––––––––

Number of tracks: 13
Official DR value: DR12

Samplerate: 88200 Hz
Channels: 2
Bits per sample: 24
Bitrate: 2711 kbps
Codec: FLAC
================================================================================



Jerry Garcia Band - GarciaLive Volumes 1-9 (2013-2017) [Official Digital Download] COMBINED RE-UP

Jerry Garcia Band - GarciaLive: Volume Eight - Bradley Center, Milwaukee, WI - November 23, 1991 (2017)
FLAC (tracks) 24 bit/88,2 kHz | Time - 131:58 minutes | 2,56 GB
Studio Master, Official Digital Download | Artwork: Front cover

GarciaLive Volume Eight presents the Jerry Garcia Band's November 23rd, 1991 performance at the Bradley Center in Milwaukee, WI. The fall '91 tour as a whole is widely regarded as one of Garcia's finest and this particular Saturday evening serves as a further testament to the legend. Fans in attendance at the Bradley Center braved an intense snowstorm and the audience's palpable energy and enthusiasm was a likely catalyst for this spirited performance. Keyboardist Melvin Seals summarized the group nicely stating 'That was the magic band. It's not that the other scenarios didn't work out but once we got to that level of the band with (drummer) Dave Kemper, John Kahn, Jerry, myself and the singers, Jackie (LaBranch) and Gloria (Jones) we all knew we had something special.

Tracklist

First set:
01 - Cats Under the Stars
02 - They Love Each Other
03 - Lay Down Sally
04 - The Night They Drove Old Dixie Down
05 - Reuben and Cherise
06 - Money Honey
07 - My Sisters and Brothers
08 - Deal

Second set:
01 - Bright Side of the Road
02 - Waiting for a Miracle
03 - Think
04 - Shining Star
05 - Ain't No Bread in the Breadbox
06 - That Lucky Old Sun
07 - Tangled Up in Blue

Musicians:
Jerry Garcia - guitar & vocals
John Kahn - bass
Melvin Seals - keyboards
David Kemper - drums
Jacklyn LaBranch - vocals
Gloria Jones - vocals

Analyzed: Jerry Garcia Band / GarciaLive Volume 8: Bradley Center, Milwaukee, WI (November 23, 1991)
––––––––––––––––––––––––––––––––––––––––

DR Peak RMS Duration Track
––––––––––––––––––––––––––––––––––––––––
DR9 0.00 dB -10.77 dB 9:44 01-CATS UNDER THE STARS
DR9 0.00 dB -11.81 dB 8:39 02-THEY LOVE EACH OTHER
DR10 0.00 dB -12.18 dB 8:47 03-LAY DOWN SALLY
DR9 0.00 dB -11.61 dB 10:47 04-THE NIGHT THEY DROVE OLD DIXIE DOWN
DR9 0.00 dB -10.76 dB 8:41 05-REUBEN AND CHERISE
DR9 0.00 dB -10.06 dB 6:44 06-MONEY HONEY
DR10 0.00 dB -12.87 dB 4:02 07-MY SISTERS AND BROTHERS
DR9 0.00 dB -10.26 dB 8:06 08-DEAL
DR9 0.00 dB -11.39 dB 5:57 01-BRIGHT SIDE OF THE ROAD
DR9 0.00 dB -10.84 dB 6:24 02-WAITING FOR A MIRACLE
DR9 0.00 dB -10.52 dB 7:49 03-THINK
DR10 0.00 dB -13.87 dB 13:22 04-SHINING STAR
DR10 0.00 dB -12.12 dB 9:34 05-AIN'T NO BREAD IN THE BREADBOX
DR9 0.00 dB -13.47 dB 12:04 06-THAT LUCKY OLD SUN
DR9 0.00 dB -10.58 dB 11:16 07-TANGLE UP IN BLUE
––––––––––––––––––––––––––––––––––––––––

Number of tracks: 15
Official DR value: DR9

Samplerate: 88200 Hz
Channels: 2
Bits per sample: 24
Bitrate: 2708 kbps
Codec: FLAC
================================================================================



Jerry Garcia Band - GarciaLive Volumes 1-9 (2013-2017) [Official Digital Download] COMBINED RE-UP

Jerry Garcia and Merl Saunders - GarciaLive: Volume Nine - Keystone Berkeley - August 11th, 1974 (2017)
FLAC (tracks) 24 bit/88,2 kHz | Time - 117:24 minutes | 2,43 GB
Studio Master, Official Digital Download | Artwork: Front cover

GarciaLive Volume Nine presents Jerry Garcia & Merl Saunders' adventurous rock-jazz-R&B fusion performance from August 11th, 1974 at Keystone in Berkeley, CA with John Kahn on bass, Martin Fierro on saxophone & flute and the Grateful Dead's Bill Kreutzmann on drums. While the evening's setlist focuses mainly on standards, the approach is anything but regular or straight. It showcases their ability to reimagine standards through inventive arrangements and fiery virtuosity permeated with soul.

Tracklist

First set:
01 - That's What Love Will Make You Do
02 - La La
03 - It Ain't No Use
04 - Mystery Train

Second set:
05 - The Harder They Come
06 - Ain't No Woman (Like the One I've Got)
07 - It's Too Late
08 - (I'm a) Road Runner
09 - The Night They Drove Old Dixie Down

Musicians:
Jerry Garcia – guitar, vocals
Merl Saunders – keyboards, vocals
Martin Fierro – flute, saxophone
John Kahn – bass
Bill Kreutzmann – drums

Analyzed: Jerry Garcia and Merl Saunders / GarciaLive Volume 9: Keystone Berkeley (August 11, 1974)
––––––––––––––––––––––––––––––––––––––––

DR Peak RMS Duration Track
––––––––––––––––––––––––––––––––––––––––
DR11 -0.01 dB -13.04 dB 13:14 01-THAT'S WHAT LOVE WILL MAKE YOU DO
DR10 -0.01 dB -12.68 dB 17:06 02-LA LA
DR10 -0.01 dB -11.88 dB 10:57 03-IT AIN'T NO USE
DR10 -0.01 dB -11.79 dB 13:33 04-MYSTERY TRAIN
DR10 -0.01 dB -11.98 dB 19:10 01-THE HARDER THEY COME
DR10 -0.01 dB -12.38 dB 17:01 02-AIN'T NO WOMAN
DR10 -0.01 dB -12.75 dB 9:06 03-IT'S TOO LATE
DR9 -0.01 dB -11.35 dB 10:43 04-ROAD RUNNER
DR8 -0.01 dB -11.70 dB 6:34 05-THE NIGHT THEY DROVE OLD DIXIE DOWN
––––––––––––––––––––––––––––––––––––––––

Number of tracks: 9
Official DR value: DR10

Samplerate: 88200 Hz
Channels: 2
Bits per sample: 24
Bitrate: 2747 kbps
Codec: FLAC
================================================================================


Thanks to the Original customer(s)!

Grateful Dead - Complete Studio Albums Collection
Dear Jerry: Celebrating The Music Of Jerry Garcia