Tags
Language
Tags

Gundula Janowitz - Bach, J.S.: Christmas Oratorio, BWV 248 (Remastered) (1965/2016) [Official Digital Download 24/192]

Posted By: El Misha
Gundula Janowitz - Bach, J.S.: Christmas Oratorio, BWV 248 (Remastered) (1965/2016) [Official Digital Download 24/192]

Gundula Janowitz, Christa Ludwig, Fritz Wunderlich, Franz Crass, Münchener Bach-Chor, Münchener Bach-Orchester & Karl Richter - Bach, J.S.: Christmas Oratorio, BWV 248 (Remastered) (1965/2016)
FLAC (tracks) 24-bit/192.0 kHz | Time - 02:43:32 | 6.10 GB
Studio Master, Official Digital Download | Artwork: Front cover+digital booklet

The Christmas Oratorio (German: Weihnachts-Oratorium), BWV 248, is an oratorio by Johann Sebastian Bach intended for performance in church during the Christmas season. It was written for the Christmas season of 1734 and incorporates music from earlier compositions, including three secular cantatas written during 1733 and 1734 and a now lost church cantata, BWV 248a. The date is confirmed in Bach's autograph manuscript. The next performance was not until 17 December 1857 by the Sing-Akademie zu Berlin under Eduard Grell. The Christmas Oratorio is a particularly sophisticated example of parody music. The author of the text is unknown, although a likely collaborator was Christian Friedrich Henrici (Picander).

The work belongs to a group of three oratorios written towards the end of Bach's career in 1734 and 1735 for major feasts, the others being the Ascension Oratorio (BWV 11) and the Easter Oratorio (BWV 249). All parody earlier compositions, although the Christmas Oratorio is by far the longest and most complex work.[1]

The oratorio is in six parts, each part being intended for performance on one of the major feast days of the Christmas period. The piece is often presented as a whole or split into two equal parts. The total running time for the entire work is nearly three hours.

The first part (for Christmas Day) describes the Birth of Jesus, the second (for December 26) the annunciation to the shepherds, the third (for December 27) the adoration of the shepherds, the fourth (for New Year's Day) the circumcision and naming of Jesus, the fifth (for the first Sunday after New Year) the journey of the Magi, and the sixth (for Epiphany) the adoration of the Magi.

Noted Bach interpreter, organist and conductor Karl Richter leads the Münchener Bach-Orchester on this vintage and highly regarded 1965 reissue, Richter's second time recording Bach's Christmas Oratorio. Joining the orchestra are four vocalists described as "stunning" by Gramophone: lyric soprano Gundula Janowitz, mezzo-soprano Christa Ludwig, tenor Fritz Karl Otto Wunderlich and bass Franz Crass.

"Fritz Wunderlich had one of the most beautiful lyric tenor voices of the 20th century. How tragic then that he died when he was only 36." (MusicWeb International)



Tracklist:

Johann Sebastian Bach (1685 - 1770): Christmas Oratorio, BWV 248 / Part One - For The First Day Of Christmas:
1. No.1 Chorus: "Jauchzet, frohlocket"08:17
2. No.2 Evangelist: "Es begab sich aber zu der Zeit"01:39
3. No.3 Rezitativ: "Nun wird mein liebster Bräutigam"01:09
4. No.4 Aria: "Bereite dich, Zion"06:03
5. No.5 Choral: "Wie soll ich dich empfangen"01:19
6. No.6 Evangelist: "Und sie gebar ihren ersten Sohn"00:30
7. No.7 Choral, Recitativ: "Er ist auf Erden kommen arm" / "Wer will die Liebe recht erhöhn"03:35
8. No.8 Aria: "Großer Herr, o starker König"05:39
9. No.9 Choral: "Ach mein herzliebes Jesulein"01:36
Christmas Oratorio, BWV 248 / Part Two - For The Second Day Of Christmas:
10. No.10 Sinfonia07:14
11. No.11 Evangelist: "Und es waren Hirten in derselben Gegend"01:02
12. No.12 Choral: "Brich an, o schönes Morgenlicht"01:08
13. No.13 Evangelist, Engel: "Und der Engel sprach zu Ihnen"00:59
14. No.14 Rezitativ: "Was Gott dem Abraham Verheißen"00:56
15. No.15 Aria: "Frohe Hirten, eilt, ach eilet"03:57
16. No.16 Evangelist: "Und das habt zum Zeichen"00:28
17. No.17 Choral: "Schaut hin, dort liegt im finstern Stall"00:45
18. No.18 Rezitativ: "So geht denn hin, ihr Hirten, geht"01:00
19. No.19 Aria: "Schlafe, mein Liebster, geniesse der Ruh"11:14
20. No.20 Evangelist: "Und alsbald war da bei dem Engel"00:19
21. No.21 Chor: "Ehre sei Gott in der Höhe"02:42
22. No.22 Rezitativ: "So recht, ihr Engel, jauchzt und singet"00:35
23. No.23 Choral: "Wir singen dir in deinem Heer"01:42
Christmas Oratorio, BWV 248 / Part Three - For The Third Day Of Christmas:
24. No.24 Chor: "Herrscher des Himmels, erhöre das Lallen"02:13
25. No.25 Evangelist: "Und da die Engel von ihnen gen Himmel fuhren"00:12
26. No.26 Chor: "Lasset uns nun gehen gen Bethlehem"00:53
27. No.27 Rezitativ: "Er hat sein Volk getröst"00:58
28. No.28 Choral: "Dies hat er alles uns getan"00:47
29. No.29 Duett: "Herr, dein Mitleid, dein Erbarmen"08:21
30. No.30 Evangelist: "Und sie kamen eilend"01:24
31. No.31 Aria: "Schließe, mein Herze, dies selige Wunder"06:11
32. No.32 Recitativ: "Ja, ja, mein Herz soll es bewahren"00:31
33. No.33 Choral: "Ich will dich mit Fleiß bewahren"00:48
34. No.34 Evangelist: "Und die Hirten kehrten wieder um"00:34
35. No.35 Choral: "Seid froh dieweil"00:49
36. No.24 Chor: "Herrscher des Himmels, erhöre das Lallen" (da capo)02:20
Christmas Oratorio, BWV 248 / Part Four - For New Year's Day:
37. No.36 Chor: "Fallt mit Danken, fallt mit Loben"05:56
38. No.37 Evangelist: "Und da acht Tage um waren"00:42
39. No.38 Rezitativ, Arioso: "Immanuel, o süßes Wort" / "Jesu, du mein liebstes Leben" / "Komm ich will dich mit Lust umfassen"03:12
40. No.39 Aria: "Flösst, mein Heiland, flösst dein Namen"05:43
41. No.40 Rezitativ, Arioso: "Wohlan, dein Name soll allein" / "Jesu mein Freud und Wonne"01:43
42. No.41 Aria: "Ich will nur dir zu Ehren leben"04:55
43. No.42 Choral: "Jesus richte mein Beginnen"03:04
Christmas Oratorio, BWV 248 / Part Five - For The 1st Sunday In The New Year:
44. No.43 Chor: "Ehre sei dir, Gott, gesungen"06:49
45. No.44 Evangelist: "Da Jesu geboren war zu Bethlehem"00:30
46. No.45 Chor, Rezitativ: "Wo ist der neugeborne König der Juden?" / "Sucht ihn in meiner Brust"02:29
47. No.46 Choral: "Dein Glanz all Finsternis verzehrt"00:48
48. No.47 Aria: "Erleucht auch meine finstre Sinnen"04:23
49. No.48 Evangelist: "Da das der König Herodes hörte"00:15
50. No.49 Rezitativ: "Warum wollt ihr erschrecken?"00:35
51. No.50 Evangelist: "Und ließ versammeln alle Hohepriester"01:38
52. No.51 Terzetto: "Ach, wann wird die Zeit erscheinen?"05:21
53. No.52 Rezitativ: "Mein Liebster herrschet schon"00:35
54. No.53 Choral: "Zwar ist solche Herzensstube"00:56
Christmas Oratorio, BWV 248 / Part Six - For The Feast Of Epiphany:
55. No.54 Chor: "Herr, wenn die stolzen Feinde schnauben"05:13
56. No.55 Evangelist, Herodes: "Da berief Herodes die Weisen heimlich" / "Ziehet hin und forschet fleißig"01:09
57. No.56 Rezitativ: "Du Falscher, suche nur den Herrn zu fällen"01:00
58. No.57 Aria: "Nur ein Wink von seinen Händen"04:03
59. No.58 Evangelist: "Als sie nun den König gehöret hatten"01:31
60. No.59 Chorale: "Ich steh an deiner Krippen hier"01:12
61No.60 Evangelist: "Und Gott befahl ihnen im Traum"00:24
62. No.61 Rezitativ: "So geht! Genug, mein Schatz geht nicht von hier"02:01
63. No.62 Aria: "Nun mögt ihr stolzen Feinde schrecken"04:09
64. No.63 Rezitativ: "Was will der Hölle Schrecken nun?"00:33
65. No.64 Choral: "Nun seid ihr wohl gerochen"03:18

Gundula Janowitz, soprano
Franz Crass, bass
Christa Ludwig, contralto
Fritz Wunderlich, tenor
Münchener Bach-Chor
Münchener Bach-Orchester
Karl Richter, conductor

foobar2000 1.4 / Dynamic Range Meter 1.1.1
log date: 2021-12-23 08:05:32

––––––––––––––––––––––––––––––––––––––––
Analyzed: Christa Ludwig / Bach, J.S.: Christmas Oratorio, BWV 248 (1-8)
Franz Crass / Bach, J.S.: Christmas Oratorio, BWV 248 (9-16)
Fritz Wunderlich / Bach, J.S.: Christmas Oratorio, BWV 248 (17-36)
Gundula Janowitz / Bach, J.S.: Christmas Oratorio, BWV 248 (37-42)
Münchener Bach-Chor / Bach, J.S.: Christmas Oratorio, BWV 248 (43)
Orchestre -Bach de Munich / Bach, J.S.: Christmas Oratorio, BWV 248 (44-65)
––––––––––––––––––––––––––––––––––––––––

DR Peak RMS Duration Track
––––––––––––––––––––––––––––––––––––––––
DR11 -7.63 dB -25.95 dB 1:09 03-No.3: "Nun wird mein liebster Bräutigam"
DR13 -8.61 dB -26.84 dB 6:03 04-No. 4: "Bereite dich, Zion"
DR15 -7.06 dB -26.06 dB 11:14 19-No.19: "Schlafe, mein Liebster, geniesse der Ruh"
DR14 -7.45 dB -28.24 dB 6:11 31-No.31: "Schließe, mein Herze, dies selige Wunder"
DR11 -10.50 dB -27.48 dB 0:31 32-No.32 Recitativ: "Ja, ja, mein Herz soll es bewahren"
DR12 -3.28 dB -20.28 dB 2:29 46-No.45 Chor, Rezitativ: "Wo ist der neugeborne König der Juden?" / "Sucht ihn in meiner Brust"
DR14 -5.83 dB -23.94 dB 0:35 50-No.49 Rezitativ: "Warum wollt ihr erschrecken?"
DR10 -6.78 dB -23.58 dB 0:35 53-No.52 Rezitativ: "Mein Liebster herrschet schon"
DR13 -6.54 dB -26.74 dB 3:35 07-No.7 Choral, Recitativ: "Er ist auf Erden kommen arm" / "Wer will die Liebe recht erhöhn"
DR13 -2.73 dB -19.55 dB 5:39 08-No.8 Aria: "Großer Herr, o starker König"
DR12 -10.05 dB -26.51 dB 0:56 14-No.14 Rezitativ: "Was Gott dem Abraham verheißen"
DR13 -13.11 dB -30.30 dB 1:00 18-No.18 Rezitativ: "So geht denn hin, ihr Hirten, geht"
DR13 -14.14 dB -30.70 dB 0:58 27-No.27 Rezitativ: "Er hat sein Volk getröst"
DR12 -5.28 dB -22.69 dB 3:12 39-No.38 Rezitativ, Arioso: "Immanuel, o süßes Wort" / "Jesu, du mein liebstes Leben" / "Komm ich will dich mit Lust umfassen"
DR12 -3.43 dB -21.61 dB 1:43 41-No.40 Rezitativ, Arioso: "Wohlan, dein Name soll allein" / "Jesu mein Freud und Wonne"
DR13 -8.98 dB -25.96 dB 4:23 48-No.47 Aria: "Erleucht auch meine finstre Sinnen"
DR13 -12.70 dB -30.11 dB 1:39 02-No.2 Evangelist: "Es begab sich aber zu der Zeit"
DR12 -14.48 dB -31.35 dB 0:30 06-No.6 Evangelist: "Und sie gebar ihren ersten Sohn"
DR13 -11.76 dB -30.62 dB 1:02 11-No.11 Evangelist: "Und es waren Hirten in derselben Gegend"
DR11 -5.70 dB -23.26 dB 0:59 13-No.13 Evangelist, Engel: "Und der Engel sprach zu ihnen"
DR14 -8.77 dB -26.91 dB 3:57 15-No.15 Aria: "Frohe Hirten, eilt, ach eilet"
DR12 -17.68 dB -34.05 dB 0:28 16-No.16 Evangelist: "Und das habt zum Zeichen"
DR13 -11.83 dB -29.72 dB 0:19 20-No.20 Evangelist: "Und alsbald war da bei dem Engel"
DR12 -15.44 dB -29.22 dB 0:12 25-No.25 Evangelist: "Und da die Engel von ihnen gen Himmel fuhren"
DR13 -10.58 dB -28.97 dB 1:24 30-No.30 Evangelist: "Und sie kamen eilend"
DR12 -14.86 dB -30.53 dB 0:34 34-No.34 Evangelist: "Und die Hirten kehrten wieder um"
DR12 -15.07 dB -31.96 dB 0:42 38-No.37 Evangelist: "Und da acht Tage um waren"
DR13 -7.68 dB -23.45 dB 4:55 42-No.41 Aria: "Ich will nur dir zu Ehren leben"
DR13 -10.14 dB -26.39 dB 0:30 45-No.44 Evangelist: "Da Jesu geboren war zu Bethlehem"
DR10 -9.93 dB -25.29 dB 0:15 49-No.48 Evangelist: "Da das der König Herodes hörte"
DR12 -12.25 dB -28.33 dB 1:38 51-No.50 Evangelist: "Und ließ versammeln alle Hohepriester"
DR12 -11.49 dB -28.68 dB 1:09 56-No.55 Evangelist, Herodes: "Da berief Herodes die Weisen heimlich" / "Ziehet hin und forschet fleißig"
DR13 -10.97 dB -29.70 dB 1:31 59-No.58 Evangelist: "Als sie nun den König gehöret hatten"
DR11 -12.77 dB -28.87 dB 0:24 61-No.60 Evangelist: "Und Gott befahl ihnen im Traum"
DR14 -8.93 dB -27.26 dB 2:01 62-No.61 Rezitativ: "So geht! Genug, mein Schatz geht nicht von hier"
DR14 -9.64 dB -28.07 dB 4:09 63-No.62 Aria: "Nun mögt ihr stolzen Feinde schrecken"
DR15 -2.76 dB -22.40 dB 8:21 29-No.29 Duett: "Herr, dein Mitleid, dein Erbarmen"
DR15 -3.36 dB -25.43 dB 5:43 40-No.39 Aria: "Flösst, mein Heiland, flösst dein Namen"
DR15 -2.98 dB -22.93 dB 5:21 52-No.51 Terzetto: "Ach, wann wird die Zeit erscheinen?"
DR12 -4.67 dB -22.39 dB 1:00 57-No.56 Rezitativ: "Du Falscher, suche nur den Herrn zu fällen"
DR13 -2.55 dB -20.72 dB 4:03 58-No.57 Aria: "Nur ein Wink von seinen Händen"
DR12 -4.77 dB -19.96 dB 0:33 64-No.63 Rezitativ: "Was will der Hölle Schrecken nun?"
DR10 -5.36 dB -19.79 dB 1:12 60-No.59 Chorale: "Ich steh an deiner Krippen hier"
DR13 -0.50 dB -17.77 dB 8:17 01-No.1 Chorus: "Jauchzet, frohlocket"
DR12 -13.14 dB -29.13 dB 1:19 05-No.5 Choral: "Wie soll ich dich empfangen"
DR11 -4.73 dB -18.38 dB 1:36 09-No.9 Choral: "Ach mein herzliebes Jesulein"
DR12 -7.22 dB -26.22 dB 7:14 10-No.10 Sinfonia
DR11 -3.22 dB -18.37 dB 1:08 12-No.12 Choral: "Brich an, o schönes Morgenlicht"
DR12 -13.59 dB -29.29 dB 0:45 17-No.17 Choral: "Schaut hin, dort liegt im finstern Stall"
DR12 -3.40 dB -19.14 dB 2:42 21-No.21 Chor: "Ehre sei Gott in der Höhe"
DR13 -6.63 dB -23.44 dB 0:35 22-No.22 Rezitativ: "So recht, ihr Engel, jauchzt und singet"
DR11 -2.32 dB -19.32 dB 1:42 23-No.23 Choral: "Wir singen dir in deinem Heer"
DR11 -1.20 dB -16.40 dB 2:13 24-No.24 Chor: "Herrscher des Himmels, erhöre das Lallen"
DR11 -3.80 dB -17.59 dB 0:53 26-No.26 Chor: "Lasset uns nun gehen gen Bethlehem"
DR10 -2.05 dB -17.35 dB 0:47 28-No.28 Choral: "Dies hat er alles uns getan"
DR11 -3.01 dB -18.32 dB 0:48 33-No.33 Choral: "Ich will dich mit Fleiß bewahren"
DR11 -3.90 dB -16.85 dB 0:49 35-No.35 Choral: "Seid froh dieweil"
DR11 -1.84 dB -16.71 dB 2:20 36-No.24 Chor: "Herrscher des Himmels, erhöre das Lallen" (da capo)
DR12 -2.72 dB -18.40 dB 5:56 37-No.36 Chor: "Fallt mit Danken, fallt mit Loben"
DR12 -3.23 dB -20.72 dB 3:04 43-No.42 Choral: "Jesus richte mein Beginnen"
DR13 -2.84 dB -20.80 dB 6:49 44-No.43 Chor: "Ehre sei dir, Gott, gesungen"
DR11 -4.69 dB -18.89 dB 0:48 47-No.46 Choral: "Dein Glanz all Finsternis verzehrt"
DR11 -3.98 dB -19.94 dB 0:56 54-No.53 Choral: "Zwar ist solche Herzensstube"
DR13 -2.25 dB -18.46 dB 5:13 55-No.54 Chor: "Herr, wenn die stolzen Feinde schnauben"
DR14 -0.94 dB -18.68 dB 3:18 65-No.64 Choral: "Nun seid ihr wohl gerochen"
––––––––––––––––––––––––––––––––––––––––

Number of tracks: 65
Official DR value: DR12

Samplerate: 192000 Hz
Channels: 2
Bits per sample: 24
Bitrate: 5336 kbps
Codec: FLAC
================================================================================



Thanks to the Original customer!