Tags
Language
Tags

Gwen Stefani - You Make It Feel Like Christmas (Deluxe Edition - 2020) (2020) [Official Digital Download]

Posted By: El Misha
Gwen Stefani - You Make It Feel Like Christmas (Deluxe Edition - 2020) (2020) [Official Digital Download]

Gwen Stefani - You Make It Feel Like Christmas (Deluxe Edition - 2020) (2020)
FLAC (tracks) 24-bit/44.10 kHz | Time - 57:35 | 704 MB
Studio Master, Official Digital Download | Artwork: Front cover

Showbiz has been in Gwen Stefani's blood since the start of her career, which is the reason why she, unlike many '90s alt-rock veterans, can seem at home within the confines of the televised musical competition The Voice. Her very presence on The Voice, one of the last genuinely popular franchises on network television in the 2010s, guaranteed the existence of an album like You Make It Feel Like Christmas, one that's pitched directly in the mainstream. You Make It Feel Like Christmas plays upon her romance with co-host Blake Shelton, making her bouncy duet with the country singer the album's title track and first single.



Tracklist:

01-Jingle Bells
02-Let It Snow
03-My Gift Is You
04-Silent Night
05-When I Was A Little Girl
06-Last Christmas
07-You Make It Feel Like Christmas
08-Under The Christmas Lights
09-Santa Baby
10-White Christmas
11-Never Kissed Anyone With Blue Eyes
12-Christmas Eve
13-Santa Claus Is Coming To Town
14-Cheer For The Elves
15-Secret Santa
16-Winter Wonderland
17-Feliz Navidad
18-Sleigh Ride
19-Here This Christmas

foobar2000 1.4 / Dynamic Range Meter 1.1.1
log date: 2021-12-20 21:34:36

––––––––––––––––––––––––––––––––––––––––
Analyzed: Gwen Stefani / You Make It Feel Like Christmas
––––––––––––––––––––––––––––––––––––––––

DR Peak RMS Duration Track
––––––––––––––––––––––––––––––––––––––––
DR6 -0.25 dB -7.86 dB 2:58 01-Jingle Bells
DR6 -0.26 dB -7.72 dB 2:15 02-Let It Snow
DR6 -0.26 dB -8.33 dB 2:52 03-My Gift Is You
DR7 -0.29 dB -8.20 dB 3:15 04-Silent Night
DR6 -0.27 dB -8.35 dB 3:30 05-When I Was A Little Girl
DR6 -0.23 dB -7.23 dB 4:39 06-Last Christmas
DR6 -0.26 dB -7.67 dB 2:38 07-You Make It Feel Like Christmas
DR6 -0.23 dB -8.24 dB 2:50 08-Under The Christmas Lights
DR6 -0.24 dB -7.98 dB 2:54 09-Santa Baby
DR6 -0.24 dB -7.69 dB 3:09 10-White Christmas
DR6 -0.27 dB -7.90 dB 3:04 11-Never Kissed Anyone With Blue Eyes
DR6 -0.28 dB -9.51 dB 3:19 12-Christmas Eve
DR6 -0.23 dB -7.67 dB 2:58 13-Santa Claus Is Coming To Town
DR7 -0.24 dB -8.11 dB 3:06 14-Cheer For The Elves
DR6 -0.25 dB -8.32 dB 3:26 15-Secret Santa
DR6 -0.26 dB -7.85 dB 2:37 16-Winter Wonderland
DR7 -0.24 dB -8.44 dB 2:43 17-Feliz Navidad
DR6 -0.31 dB -7.39 dB 2:33 18-Sleigh Ride
DR7 -0.30 dB -9.02 dB 2:58 19-Here This Christmas
––––––––––––––––––––––––––––––––––––––––

Number of tracks: 19
Official DR value: DR6

Samplerate: 44100 Hz
Channels: 2
Bits per sample: 24
Bitrate: 1680 kbps
Codec: FLAC
================================================================================



Thanks to the Original customer!