Tags
Language
Tags
January 2023
Su Mo Tu We Th Fr Sa
1 2 3 4 5 6 7
8 9 10 11 12 13 14
15 16 17 18 19 20 21
22 23 24 25 26 27 28
29 30 31 1 2 3 4

Hélène Collerette - Bach: Sonatas & Partitas (2022) [Official Digital Download 24/48]

Posted By: delpotro
Hélène Collerette - Bach: Sonatas & Partitas (2022) [Official Digital Download 24/48]

Hélène Collerette - Bach: Sonatas & Partitas (2022)
FLAC (tracks) 24-bit/48 kHz | Front Cover | Time - 149:18 minutes | 1,54 GB
Classical | Label: iMD-Rue de Nice Prod., Official Digital Download

Hélène Collerette is a leading violinist, an established orchestral player who has also appeared widely as a soloist across France and in her native North America. Collerette has a substantial discography focusing on 20th century music.

Collerette was born in Chicoutimi, in northern Quebec, Canada, in 1968. She studied with Langis Breton at the Conservatoire de Chicoutimi (now the Conservatoire de musique de Saguenay), graduating in 1987. Collerette went on to the Conservatoire de Lausanne in France, where her teacher was Pierre Amoyal, earning a licentiate degree there in 1990, and to the Université de Montréal, studying with Vladimir Landsman and earning a master's degree in 1993. Well before her graduation in Chicoutimi, Collerette had already, in 1983, formed the Trio Nelligan with cellist Annie Gadbois and pianist Sandra Murray. That group lasted until 1988, and in 1995, Collerette became part of another chamber group, the Quatuor Renoir. Collerette served as first violinist and soloist in the Orchestre de Mulhouse in France from 1992 to 1994, and with the Orchestre de l'Opéra de Lyon in 1995 and 1996. In 1996, she became a member of the Orchestre Philharmonique de Radio France, where she remained violinist and "super soliste" as of the early 2020s.

Opera Arias: Puccini, Tchaikovsky, Bizet, Strauss
Collerette has also performed with a variety of other orchestras, including the Violons du Roy in Quebec City, the Orchestre Symphonique de Montréal, and the Munich Symphony Orchestra. She has appeared on several Orchestre Philharmonique de Radio France recordings as a violin soloist; her recording debut came in 2003 on an album on which the orchestra backed soprano Barbara Hendricks. In 2018, Collerette made her solo recording debut with pianist Anne Le Bozec on an album of violin sonatas by Florent Schmitt, Albert Roussel, and André Prévost on the Signature label, following that up with an album of works by Bartók, Ravel, György Kurtág, and Bruno Coulais in 2021. The following year, she was heard on violist Vinciane Béranger's album Rebecca Clarke: Works for Viola.

Tracklist:
01. Bach: Sonata No. I in G Minor, BWV 1001: I. Adagio
02. Bach: Sonata No. I in G Minor, BWV 1001: II. Fuga
03. Bach: Sonata No. I in G Minor, BWV 1001: III. Siciliana
04. Bach: Sonata No. I in G Minor, BWV 1001: IV. Presto
05. Bach: Partita No. I in B Minor, BWV 1002: I. Allemanda
06. Bach: Partita No. I in B Minor, BWV 1002: II. Double
07. Bach: Partita No. I in B Minor, BWV 1002: III. Corrente
08. Bach: Partita No. I in B Minor, BWV 1002: IV. Double
09. Bach: Partita No. I in B Minor, BWV 1002: V. Sarabande
10. Bach: Partita No. I in B Minor, BWV 1002: VI. Double
11. Bach: Partita No. I in B Minor, BWV 1002: VII. Tempo di Borea
12. Bach: Partita No. I in B Minor, BWV 1002: VIII. Double
13. Bach: Sonata No. II in A Minor, BWV 1003: I. Grave
14. Bach: Sonata No. II in A Minor, BWV 1003: II. Fuga
15. Bach: Sonata No. II in A Minor, BWV 1003: III. Andante
16. Bach: Sonata No. II in A Minor, BWV 1003: IV. Allegro
17. Bach: Partita No. II in D Minor, BWV 1004: I. Allemanda
18. Bach: Partita No. II in D Minor, BWV 1004: II. Corrente
19. Bach: Partita No. II in D Minor, BWV 1004: III. Sarabanda
20. Bach: Partita No. II in D Minor, BWV 1004: IV. Giga
21. Bach: Partita No. II in D Minor, BWV 1004: V. Ciaccona
22. Bach: Sonata No. III in C Major, BWV 1005: I. Adagio
23. Bach: Sonata No. III in C Major, BWV 1005: II. Fuga
24. Bach: Sonata No. III in C Major, BWV 1005: III. Largo
25. Bach: Sonata No. III in C Major, BWV 1005: IV. Allegro Assai
26. Bach: Partita No. III in E Major, BWV 1006: I. Preludio
27. Bach: Partita No. III in E Major, BWV 1006: II. Loure
28. Bach: Partita No. III in E Major, BWV 1006: III. Gavotte en Rondeau
29. Bach: Partita No. III in E Major, BWV 1006: IV. Menuet I & II
30. Bach: Partita No. III in E Major, BWV 1006: V. Bourrée
31. Bach: Partita No. III in E Major, BWV 1006: VI. Gigue

foobar2000 1.4.1 / Dynamic Range Meter 1.1.1
log date: 2022-08-17 13:16:24

––––––––––––––––––––––––––––––––––––––––
Analyzed: Hélène Collerette / Bach Sonatas & Partitas
––––––––––––––––––––––––––––––––––––––––

DR Peak RMS Duration Track
––––––––––––––––––––––––––––––––––––––––
DR13 -3.53 dB -21.24 dB 4:22 01-Bach: Sonata No. I in G Minor, BWV 1001: I. Adagio
DR14 -0.93 dB -19.98 dB 5:44 02-Bach: Sonata No. I in G Minor, BWV 1001: II. Fuga
DR16 -3.42 dB -24.91 dB 3:02 03-Bach: Sonata No. I in G Minor, BWV 1001: III. Siciliana
DR15 -1.56 dB -20.52 dB 3:44 04-Bach: Sonata No. I in G Minor, BWV 1001: IV. Presto
DR13 -2.22 dB -20.29 dB 5:52 05-Bach: Partita No. I in B Minor, BWV 1002: I. Allemanda
DR13 -2.71 dB -20.36 dB 3:33 06-Bach: Partita No. I in B Minor, BWV 1002: II. Double
DR13 -3.51 dB -20.74 dB 3:32 07-Bach: Partita No. I in B Minor, BWV 1002: III. Corrente
DR15 -0.48 dB -19.57 dB 3:35 08-Bach: Partita No. I in B Minor, BWV 1002: IV. Double
DR13 -2.41 dB -21.20 dB 3:54 09-Bach: Partita No. I in B Minor, BWV 1002: V. Sarabande
DR13 -2.91 dB -20.18 dB 2:52 10-Bach: Partita No. I in B Minor, BWV 1002: VI. Double
DR14 -0.72 dB -19.64 dB 3:40 11-Bach: Partita No. I in B Minor, BWV 1002: VII. Tempo di Borea
DR14 -1.82 dB -20.76 dB 4:06 12-Bach: Partita No. I in B Minor, BWV 1002: VIII. Double
DR12 -0.39 dB -19.64 dB 4:40 13-Bach: Sonata No. II in A Minor, BWV 1003: I. Grave
DR15 -0.33 dB -19.00 dB 8:44 14-Bach: Sonata No. II in A Minor, BWV 1003: II. Fuga
DR14 -4.92 dB -23.73 dB 6:03 15-Bach: Sonata No. II in A Minor, BWV 1003: III. Andante
DR15 -2.21 dB -21.63 dB 6:14 16-Bach: Sonata No. II in A Minor, BWV 1003: IV. Allegro
DR15 0.00 dB -20.22 dB 5:20 17-Bach: Partita No. II in D Minor, BWV 1004: I. Allemanda
DR15 -0.79 dB -18.93 dB 2:48 18-Bach: Partita No. II in D Minor, BWV 1004: II. Corrente
DR14 -0.77 dB -20.18 dB 4:36 19-Bach: Partita No. II in D Minor, BWV 1004: III. Sarabanda
DR15 -0.28 dB -18.81 dB 4:08 20-Bach: Partita No. II in D Minor, BWV 1004: IV. Giga
DR14 -0.03 dB -17.87 dB 15:12 21-Bach: Partita No. II in D Minor, BWV 1004: V. Ciaccona
DR13 -4.46 dB -23.28 dB 4:40 22-Bach: Sonata No. III in C Major, BWV 1005: I. Adagio
DR15 -0.72 dB -20.22 dB 11:08 23-Bach: Sonata No. III in C Major, BWV 1005: II. Fuga
DR13 -4.54 dB -22.75 dB 3:35 24-Bach: Sonata No. III in C Major, BWV 1005: III. Largo
DR14 -3.08 dB -22.39 dB 5:01 25-Bach: Sonata No. III in C Major, BWV 1005: IV. Allegro Assai
DR12 -4.11 dB -21.75 dB 3:44 26-Bach: Partita No. III in E Major, BWV 1006: I. Preludio
DR14 -4.74 dB -26.11 dB 4:39 27-Bach: Partita No. III in E Major, BWV 1006: II. Loure
DR13 -4.75 dB -23.29 dB 3:16 28-Bach: Partita No. III in E Major, BWV 1006: III. Gavotte en Rondeau
DR15 -1.53 dB -21.10 dB 4:20 29-Bach: Partita No. III in E Major, BWV 1006: IV. Menuet I & II
DR13 -3.87 dB -23.94 dB 1:26 30-Bach: Partita No. III in E Major, BWV 1006: V. Bourrée
DR13 -4.45 dB -22.08 dB 1:53 31-Bach: Partita No. III in E Major, BWV 1006: VI. Gigue
––––––––––––––––––––––––––––––––––––––––

Number of tracks: 31
Official DR value: DR14

Samplerate: 48000 Hz
Channels: 2
Bits per sample: 24
Bitrate: 1477 kbps
Codec: FLAC
================================================================================


Thanks to the Original customer!