Huw Morgan & Rebecca Wilt - The Art of the Modern Trumpet, Vol. 2 (2021) [Official Digital Download 24/96]

Posted By: delpotro
Huw Morgan & Rebecca Wilt - The Art of the Modern Trumpet, Vol. 2 (2021) [Official Digital Download 24/96]

Huw Morgan & Rebecca Wilt - The Art of the Modern Trumpet, Vol. 2 (2021)
FLAC (tracks) 24-bit/96 kHz | Front Cover & Digital Booklet | Time - 61:44 minutes | 1,99 GB
Classical | Label: Naxos Records, Official Digital Download

The second volume of this series (Volume 1 is on 8.573995) visits 20th-century France, where the combination of trumpet and piano inspired music of ravishing beauty, intimacy and wit. Through the bluesy retrospection of Jean Hubeau's Sonata, the voluptuous rhapsody of Florent Schmitt's Suite and the avantgarde eclecticism of Antoine Tisné's Héraldiques, this album explores the quintessentially Gallic sonorities that came to redefine the instruments voice for the modern era.

Tracklist:
1. Impromptu for Trumpet & Piano (01:55)
2. Sarabande et finale for Trumpet & Piano (06:55)
3. Trumpet Sonata: I. Sarabande (03:35)
4. Trumpet Sonata: II. Intermède (02:01)
5. Trumpet Sonata: III. Spiritual (06:38)
6. Rapsodie for Trumpet & Piano (08:43)
7. Suite for Trumpet & Piano, Op. 133: I. Gaîment (03:11)
8. Suite for Trumpet & Piano, Op. 133: II. Lent sans excès (05:30)
9. Suite for Trumpet & Piano, Op. 133: III. Vif (02:34)
10. Mobiles (08:28)
11. Héraldiques: I. Extatique et mystérieux (04:30)
12. Héraldiques: II. Scandé (01:25)
13. Héraldiques: III. Élégiaque (02:27)
14. Héraldiques: IV. Enjoué (01:36)
15. Héraldiques: V. Brillant (00:50)
16. Air de bravoure (01:17)

foobar2000 1.4.1 / Dynamic Range Meter 1.1.1
log date: 2021-02-23 15:45:10

––––––––––––––––––––––––––––––––––––––––
Analyzed: Huw Morgan & Rebecca Wilt / The Art of the Modern Trumpet, Vol. 2
––––––––––––––––––––––––––––––––––––––––

DR Peak RMS Duration Track
––––––––––––––––––––––––––––––––––––––––
DR10 -2.51 dB -18.95 dB 1:56 01-Ibert: Impromptu for Trumpet & Piano
DR13 -0.28 dB -20.56 dB 6:56 02-Gallois-Montbrun: Sarabande et finale for Trumpet & Piano
DR13 -4.12 dB -22.58 dB 3:36 03-Hubeau: Trumpet Sonata: I. Sarabande
DR11 -3.27 dB -18.90 dB 2:02 04-Hubeau: Trumpet Sonata: II. Intermède
DR13 -2.57 dB -22.54 dB 6:38 05-Hubeau: Trumpet Sonata: III. Spiritual
DR13 -3.85 dB -22.81 dB 8:43 06-Sancan: Rapsodie for Trumpet & Piano
DR14 -2.52 dB -23.03 dB 3:11 07-Schmitt: Suite for Trumpet & Piano, Op. 133: I. Gaîment
DR13 -2.34 dB -25.33 dB 5:31 08-Schmitt: Suite for Trumpet & Piano, Op. 133: II. Lent sans excès
DR14 -0.90 dB -20.29 dB 2:34 09-Schmitt: Suite for Trumpet & Piano, Op. 133: III. Vif
DR15 -1.26 dB -23.36 dB 8:29 10-Rueff: Mobiles
DR17 -0.82 dB -26.27 dB 4:30 11-Tisné: Héraldiques: I. Extatique et mystérieux
DR15 -8.87 dB -28.60 dB 1:26 12-Tisné: Héraldiques: II. Scandé
DR13 -5.13 dB -26.51 dB 2:28 13-Tisné: Héraldiques: III. Élégiaque
DR14 -3.77 dB -26.56 dB 1:37 14-Tisné: Héraldiques: IV. Enjoué
DR11 -2.39 dB -18.97 dB 0:51 15-Tisné: Héraldiques: V. Brillant
DR11 -1.61 dB -18.97 dB 1:17 16-Jolivet: Air de bravoure
––––––––––––––––––––––––––––––––––––––––

Number of tracks: 16
Official DR value: DR13

Samplerate: 96000 Hz
Channels: 2
Bits per sample: 24
Bitrate: 4616 kbps
Codec: FLAC
================================================================================


Thanks to the Original customer!