Infinite & Divine - Silver Lining (2021) [Official Digital Download]

Posted By: delpotro
Infinite & Divine - Silver Lining (2021) [Official Digital Download]

Infinite & Divine - Silver Lining (2021)
FLAC (tracks) 24-bit/44,1 kHz | Front Cover | Time - 47:11 minutes | 598 MB
Hard Rock, Female Vocal | Label: Frontiers Records, Official Digital Download

Infinite & Divine is a collaboration between two Swedes, musician/songwriter/producer Jan Åkesson and vocalist Tezzi (a/k/a Terese Persson). In the summer of 2019, Jan and Tezzi met and shortly after that decided to join forces creating what is now their debut Infinite & Divine album ”Silver Lining”. The combination of Jan’s energetic heavy riffs and the variety in the music with Tezzi’s melodic, yet raw vocals creates a sound not quite like anything else. While the music style is very melodic, there are a few twists and turns that make it unique and appealing. Jan started out as a songwriter while also appearing as lead guitarist in several bands, before he decided to step back from the live scene to focus on writing and producing songs. He started the band StoneLake, who released seven studio albums, while at the same time writing songs for other artists around the world, all who were performing different styles of music. In 2017, he alsoo released the album ”Ascension” by his solo project Shadow Rain. At age 17, Tezzi started doing local troubadour gigs, but before that had already started writing her own songs and lyrics, which were soon recorded. Over the years, she appeared in many different musical projects both as a lead singer in metal and progressive rock bands, as well as doing backup vocals for various Swedish artists. In 2013, she also appeared on the second album, “Fantasmagoria,” from Epysode (featuring Mike Lepond of Symphony X, Simone Mularoni of DGM, and Tom Englund of Evergrey among others) as one of the five lead singers.

Tracklist:
1. I Feel Alive (03:53)
2. Infinite and Divine (03:53)
3. Keep Moving On (04:10)
4. Not Too Late (04:32)
5. Wasteland (03:54)
6. Burn No More (03:43)
7. We Are One (05:50)
8. Off the End of the World (04:43)
9. You and I (04:56)
10. While You're Looking for Love (03:23)
11. Perplexed Perfection (04:10)

foobar2000 1.4.1 / Dynamic Range Meter 1.1.1
log date: 2021-04-11 11:28:12

––––––––––––––––––––––––––––––––––––––––
Analyzed: Infinite & Divine / Silver Lining
––––––––––––––––––––––––––––––––––––––––

DR Peak RMS Duration Track
––––––––––––––––––––––––––––––––––––––––
DR6 -1.12 dB -7.75 dB 3:53 01-I Feel Alive
DR6 -1.13 dB -7.96 dB 3:54 02-Infinite & Divine
DR6 -1.13 dB -8.21 dB 4:11 03-Keep On Moving
DR6 -1.13 dB -8.75 dB 4:32 04-Not Too Late
DR6 -1.12 dB -7.81 dB 3:54 05-Wasteland
DR6 -1.12 dB -7.59 dB 3:43 06-Burn No More
DR6 -1.11 dB -7.95 dB 5:50 07-We Are One
DR6 -1.11 dB -7.47 dB 4:43 08-Off the End of the World
DR6 -1.13 dB -7.84 dB 4:57 09-You and I
DR6 -1.12 dB -8.21 dB 3:24 10-While You're Looking for Love
DR6 -1.12 dB -7.67 dB 4:10 11-Perplexed Perfection
––––––––––––––––––––––––––––––––––––––––

Number of tracks: 11
Official DR value: DR6

Samplerate: 44100 Hz
Channels: 2
Bits per sample: 24
Bitrate: 1781 kbps
Codec: FLAC
================================================================================


Thanks to the Original customer!